<?xml version="1.0" standalone="no"?>
<!DOCTYPE svg PUBLIC "-//W3C//DTD SVG 1.1//EN" "http://www.w3.org/Graphics/SVG/1.1/DTD/svg11.dtd" >
<svg>
<metadata>
Created by FontForge 20090622 at Tue Jan 15 06:31:41 2019
 By deploy user
Copyright Unity Progress 1N-P1-ET-26710
</metadata>
<defs>
<font id="JasmineUPC-Bold" horiz-adv-x="0" >
  <font-face 
    font-family="JasmineUPC"
    font-weight="700"
    font-stretch="normal"
    units-per-em="4096"
    panose-1="2 2 8 3 7 5 5 2 3 4"
    ascent="3276"
    descent="-820"
    x-height="1200"
    cap-height="1831"
    bbox="-2343 -1368 3584 3285"
    underline-thickness="20"
    underline-position="-123"
    unicode-range="U+0020-U+F71D"
  />
    <missing-glyph />
    <glyph glyph-name="000a" horiz-adv-x="3072" 
d="M512 0v2560h2048v-2560h-2048zM2496 64v2432h-1920v-2432h1920z" />
    <glyph glyph-name="glyph1" 
 />
    <glyph glyph-name="glyph2" 
 />
    <glyph glyph-name="space" unicode=" " horiz-adv-x="909" 
 />
    <glyph glyph-name="exclam" unicode="!" horiz-adv-x="901" 
d="M217 152q0 90 73.5 141t168.5 51q55 0 109 -24t89 -67.5t35 -100.5q0 -88 -78 -138.5t-168 -50.5q-81 0 -155 54t-74 135zM565 610q-12 -73 -31.5 -106t-82.5 -33q-64 0 -81 33.5t-30 118.5l-152 1060q0 185 263 185q258 0 258 -197l-13 -135z" />
    <glyph glyph-name="quotedbl" unicode="&#x22;" horiz-adv-x="1450" 
d="M389 1069l-110 598q0 81 49.5 141t117.5 60q71 0 119.5 -59.5t48.5 -141.5l-110 -598h-115zM946 1069l-110 598q0 84 49.5 142.5t118.5 58.5t116 -58.5t47 -142.5l-106 -598h-115z" />
    <glyph glyph-name="numbersign" unicode="#" horiz-adv-x="1700" 
d="M1040 389q-25 -76 -49.5 -111.5t-85.5 -35.5q-49 0 -81.5 33.5t-32.5 80.5q0 11 12 62l69 200h-286l-82 -229q-21 -68 -47.5 -107.5t-83.5 -39.5q-53 0 -88 33t-35 85q0 26 16 66l66 192h-123q-135 0 -135 107q0 106 131 106h201l102 304h-131q-131 0 -131 106
q0 107 127 107h213l65 188q29 83 51 115t84 32q50 0 84.5 -35.5t34.5 -82.5q0 -24 -16 -66l-49 -151h286l66 192q30 81 52 112t83 31q47 0 79 -34.5t32 -83.5q0 -32 -13 -62l-53 -155h119q131 0 131 -107q0 -106 -127 -106h-197l-102 -304h123q135 0 135 -106
q0 -107 -131 -107h-205zM762 1135l-107 -299h291l103 299h-287z" />
    <glyph glyph-name="dollar" unicode="$" horiz-adv-x="1700" 
d="M754 2023q0 71 18.5 107.5t83.5 36.5q64 0 81 -36t17 -103v-218q161 -8 312 -88.5t151 -218.5q0 -63 -38.5 -103t-100.5 -40q-80 0 -104 33.5t-50 114t-78.5 122t-181.5 41.5q-130 0 -218.5 -59t-88.5 -182q0 -131 97 -185.5t349 -147.5t378 -207.5t126 -332.5
q0 -145 -77 -259.5t-205 -179t-271 -69.5v-155q0 -109 -17.5 -155t-80.5 -46q-61 0 -81.5 35t-20.5 104v217q-180 13 -320 74q-101 53 -179.5 148.5t-78.5 191.5q0 94 139 94q62 0 89.5 -26.5t54.5 -92.5q55 -128 102 -168q87 -86 266 -86q146 0 247.5 64t101.5 203
q0 109 -91 180q-91 66 -315 147l-94 37q-199 69 -295 156q-67 58 -109.5 156t-42.5 188q0 142 72 250.5t191 170t262 74.5v213z" />
    <glyph glyph-name="percent" unicode="%" horiz-adv-x="2347" 
d="M61 1368q0 152 60.5 279t175 202.5t268.5 75.5q156 0 271.5 -76.5t176 -205.5t60.5 -283q0 -163 -58 -292t-173.5 -203t-280.5 -74q-234 0 -367 167.5t-133 409.5zM1278 479q0 234 138 395.5t370 161.5q157 0 272.5 -76.5t175.5 -205t60 -283.5q0 -163 -59 -291.5
t-176 -203t-281 -74.5q-234 0 -367 167.5t-133 409.5zM684 82q-49 -68 -70.5 -83t-89.5 -15q-98 0 -98 41q0 16 49 81l1208 1651q48 65 70.5 79.5t93.5 14.5q86 0 86 -28q0 -30 -41 -78zM1962 492q0 430 -176 430t-176 -459q0 -447 176 -447t176 476zM745 1380
q0 430 -180 430q-176 0 -176 -442q0 -463 176 -463q180 0 180 475z" />
    <glyph glyph-name="ampersand" unicode="&#x26;" horiz-adv-x="2097" 
d="M1368 541l33 -37q160 192 160 303q0 39 -19 57.5t-60 39t-57 35t-16 44.5q0 70 111 70h389q110 0 110 -82q0 -40 -57 -66q-64 -26 -89 -48.5t-63 -90.5l-286 -397q160 -168 356 -168q30 0 81 10t71 10q24 0 42.5 -20t18.5 -45q0 -69 -90 -111q-137 -74 -315 -74
q-234 0 -467 168q-248 -176 -549 -176q-151 0 -297 54t-238 163.5t-92 265.5q0 352 426 545q-160 212 -160 410q0 107 55 203t150 157q178 107 410 107q205 0 358.5 -98.5t153.5 -290.5q0 -160 -136 -278.5t-319 -192.5zM598 836q-180 -139 -180 -324q0 -150 99 -247
t249 -97q90 0 150.5 24.5t148.5 81.5zM1110 1483q0 90 -59 147.5t-150 57.5q-84 0 -142.5 -55.5t-58.5 -137.5q0 -77 38 -146t118 -178q254 141 254 312z" />
    <glyph glyph-name="quotesingle" unicode="'" horiz-adv-x="651" 
d="M266 1069l-110 598q0 81 50 141t118 60q70 0 119 -59t49 -142l-111 -598h-115z" />
    <glyph glyph-name="parenleft" unicode="(" horiz-adv-x="848" 
d="M680 -524q-109 0 -229 164q-161 208 -255 495.5t-94 556.5q0 405 213 787q111 192 242 323q66 66 148 66q32 0 56.5 -18.5t24.5 -51.5q0 -28 -57 -160q-225 -464 -225 -933q0 -497 221 -1004q53 -123 53 -152q0 -37 -30.5 -55t-67.5 -18z" />
    <glyph glyph-name="parenright" unicode=")" horiz-adv-x="848" 
d="M156 1868q104 0 225 -160q165 -215 258.5 -501.5t93.5 -555.5q0 -410 -217 -786q-106 -187 -237 -324q-65 -65 -148 -65q-82 0 -82 69q0 18 57 164q226 463 226 930q0 481 -221 1003q-54 105 -54 156q0 33 31 51.5t68 18.5z" />
    <glyph glyph-name="asterisk" unicode="*" horiz-adv-x="999" 
d="M561 1184q37 -72 37 -123q0 -45 -28 -78t-74 -33q-42 0 -70.5 29.5t-28.5 73.5q0 46 25 110l29 82q28 74 28 86q0 25 -16 25q-15 0 -33 -17.5t-27 -30l-30 -42.5q-57 -77 -88 -110.5t-76 -33.5q-43 0 -73 28t-30 71q0 66 55.5 88t153.5 39q27 0 75 11.5t48 33.5
q0 25 -55.5 35t-95.5 10q-89 10 -141 32t-52 91q0 37 29 63.5t70 26.5q50 0 86.5 -35.5t96.5 -108.5t83 -73q16 0 16 24q0 19 -24 70l-25 69q-37 83 -37 127q0 46 28.5 72.5t69.5 26.5q43 0 71 -32t28 -71q0 -51 -39 -146t-39 -116q0 -20 12 -20q24 0 78.5 75.5t90.5 114.5
t89 39q45 0 72 -25.5t27 -68.5q0 -74 -67 -100t-170 -41t-103 -35q0 -25 111.5 -38.5t176 -35t64.5 -90.5q0 -98 -98 -98q-35 0 -70 24t-57.5 50l-65.5 77q-49 70 -78 70q-12 0 -12 -21q0 -23 20 -73z" />
    <glyph glyph-name="plus" unicode="+" horiz-adv-x="1651" 
d="M713 836v532h237v-532h533v-238h-533v-532h-237v532h-529v238h529z" />
    <glyph glyph-name="comma" unicode="," horiz-adv-x="897" 
d="M463 -4q-115 0 -188.5 61.5t-73.5 184.5q38 176 258 176q88 0 155 -37q107 -71 107 -209q0 -122 -74 -229q-79 -115 -177 -191t-151 -76q-17 0 -24 21q0 30 48 73t67 70q53 71 53 156z" />
    <glyph glyph-name="hyphen" unicode="-" horiz-adv-x="1683" 
d="M283 672v299h1147v-299h-1147z" />
    <glyph glyph-name="period" unicode="." horiz-adv-x="848" 
d="M426 0q-121 0 -189.5 66t-68.5 155q0 87 68 152t190 65q123 0 190.5 -65t67.5 -156q0 -87 -68 -152t-190 -65z" />
    <glyph glyph-name="slash" unicode="/" horiz-adv-x="1790" 
d="M1667 1638l-1163 -1638h-344l1167 1638h340z" />
    <glyph glyph-name="zero" unicode="0" horiz-adv-x="1987" 
d="M1819 901q0 -250 -79.5 -454t-262 -329t-469.5 -126q-422 0 -616.5 258t-194.5 651q0 251 80 455.5t262 329t469 124.5q288 0 470 -124.5t261.5 -329.5t79.5 -455zM1008 1561q-195 0 -278 -198t-83 -462q0 -263 83 -461t278 -198q196 0 278 196t82 463q0 268 -82 464
t-278 196z" />
    <glyph glyph-name="one" unicode="1" horiz-adv-x="1987" 
d="M537 119q0 42 22.5 76t58.5 34h58q75 0 110 41q25 29 25 119v914q0 65 -16 90q-26 20 -74 20h-164q-65 0 -78 12q-8 13 -8 164q5 14 125.5 25t214.5 41q118 36 200 95.5t144 59.5q107 0 107 -135v-1286q0 -81 28 -115q34 -45 82 -45h62q94 0 94 -110q0 -119 -90 -119
h-811q-90 0 -90 119z" />
    <glyph glyph-name="two" unicode="2" horiz-adv-x="1987" 
d="M467 1143q-119 0 -182.5 61t-63.5 156q0 60 17 102q126 344 725 353q238 0 422.5 -60t288 -170.5t112.5 -261.5q0 -140 -62 -231.5t-161 -150.5t-272.5 -133.5t-266.5 -123.5q-167 -80 -262 -161.5t-98 -133.5q0 -52 10.5 -67t50.5 -15h668q103 0 168 37q45 29 92 90.5
t92 61.5q33 -9 33 -90l-29 -287q0 -63 -37 -90q-45 -29 -151 -29h-1217q-111 0 -131 33t-20 110q0 175 81 316q66 108 152.5 193.5t200 159.5t274.5 151q283 145 360.5 199.5t77.5 160.5q-20 229 -381 229q-131 0 -235.5 -46.5t-104.5 -133.5q0 -15 4.5 -42.5t4.5 -47.5
q0 -115 -160 -139z" />
    <glyph glyph-name="three" unicode="3" horiz-adv-x="1987" 
d="M483 1311q-81 0 -130.5 41.5t-49.5 113.5q0 26 16 82q86 248 644 267q211 0 381.5 -44t269 -135.5t98.5 -230.5q-2 -212 -184 -290t-303 -87q56 0 182 -28.5t245 -128.5t122 -293q0 -201 -111.5 -333t-298.5 -192.5t-418 -60.5q-180 0 -330 45.5t-249.5 132t-128.5 203.5
q-5 33 -5 86q0 115 70 180q57 57 148 57q130 0 172 -102q16 -33 16 -66q0 -29 -12.5 -69.5t-12.5 -57.5q0 -44 54 -82q90 -73 254 -73q67 0 147 12q141 24 199.5 103t58.5 217q-4 126 -72 196.5t-154 93t-189.5 30t-116.5 11.5q-50 20 -50 90q0 71 50 103q21 14 103.5 19
t149 20.5t136.5 70.5q61 49 61 136q0 68 -39 125t-108 75q-87 21 -172 21q-163 0 -234 -66q-26 -23 -35.5 -77t-39.5 -81t-134 -34z" />
    <glyph glyph-name="four" unicode="4" horiz-adv-x="1987" 
d="M1536 496v-107q0 -81 29 -115q32 -45 86 -45h57q41 0 67.5 -29t26.5 -77q0 -123 -90 -123h-807q-82 0 -82 106q0 123 86 123h45q74 0 115 41q21 29 21 119v107h-865q-90 0 -106 36q-13 28 -13 62q0 113 120.5 307t314.5 397q144 152 311.5 268.5t314.5 180t230 63.5
q139 0 139 -106v-991h250q77 0 82 -107q0 -110 -78 -110h-254zM1090 1298q0 82 -41 82q-94 0 -340 -258q-226 -237 -226 -385q17 -24 99 -24h508v585z" />
    <glyph glyph-name="five" unicode="5" horiz-adv-x="1987" 
d="M1700 1798q0 -94 -68 -193.5t-272 -134.5q-73 -12 -156 -12q-121 0 -252.5 18t-241 43t-116.5 29l-107 -438h-1q0 4 83 40q92 40 233 71.5t324 31.5q331 -12 501.5 -182.5t170.5 -443.5q-1 -217 -104 -358.5t-278 -209t-396 -75.5q-15 0 -46 -2t-44 -2q-291 0 -498 106.5
t-207 327.5q0 92 62 146t164 54q106 -13 134.5 -65t41.5 -152q11 -88 100 -132t211 -44q121 0 225 41q106 44 161.5 143t55.5 218q0 212 -147 315q-121 82 -307 82q-127 0 -247 -37t-175 -82q-78 -57 -139 -57q-33 0 -50 8q-69 25 -69 111l196 847q102 -14 308.5 -37
t388.5 -28q169 0 347.5 32.5t188.5 32.5q19 0 25 -12z" />
    <glyph glyph-name="six" unicode="6" horiz-adv-x="1987" 
d="M1454 1679q-9 -5 -122.5 -28.5t-232.5 -76.5t-231 -161q-136 -128 -184 -332q6 5 46.5 36.5t134 57t245.5 25.5q320 0 514.5 -163t194.5 -496q-17 -276 -246.5 -416.5t-581.5 -140.5q-260 0 -444.5 97.5t-279.5 265.5t-95 374q0 34 8 106q37 311 193.5 514.5t350.5 303
t362.5 135.5t273.5 39q61 0 96 -23.5t35 -54.5q0 -37 -37 -62zM1008 942q-179 -3 -280 -106t-101 -242t101 -242t280 -106q183 3 282 101.5t99 234.5q0 90 -45 173.5t-131.5 135t-204.5 51.5z" />
    <glyph glyph-name="seven" unicode="7" horiz-adv-x="1987" 
d="M254 1294q11 46 28 206.5t21 240.5q4 61 103 61h1314q111 0 119 -37q0 -73 -60 -186.5t-195 -335.5t-195 -342q-105 -204 -164.5 -376.5t-95.5 -322t-48 -169.5q-18 -37 -262 -37q-221 0 -233 37q-13 26 -13 69q0 69 31 169t95 226.5t165 276.5q134 194 225.5 306.5
l187 222.5t103.5 139q0 61 -57 61h-729q-82 0 -107 -16q-35 -19 -56 -47t-44 -75.5t-35 -66.5q-19 -32 -65 -32q-33 0 -33 28z" />
    <glyph glyph-name="eight" unicode="8" horiz-adv-x="1987" 
d="M618 999q-23 0 -108.5 39t-160.5 126.5t-75 224.5q17 245 241.5 337.5t524.5 92.5q306 -3 509.5 -112.5t203.5 -309.5q-5 -288 -344 -361q180 -38 299.5 -152t130.5 -290q0 -326 -207 -465t-637 -145q-397 0 -599.5 147t-202.5 410q5 131 65 222.5t136.5 141.5t142.5 72
t81 22zM889 897q-12 0 -102 -45t-166 -123t-80 -184q0 -137 125 -214t313 -77q172 7 290 68.5t132 185.5q0 202 -192 287.5t-320 101.5zM1389 1393q0 90 -84.5 135t-223.5 45q-348 -7 -348 -201q0 -99 147.5 -154t204.5 -55q49 0 175.5 60t128.5 170z" />
    <glyph glyph-name="nine" unicode="9" horiz-adv-x="1987" 
d="M324 111q14 9 116.5 22.5t208 36.5t229.5 75t240 144q83 71 122.5 139.5t50 124t12.5 68.5q-6 -5 -46 -36t-134 -57t-246 -26q-208 0 -367 70t-250.5 218.5t-91.5 375.5q16 176 127.5 300.5t293 188.5t406.5 64q413 0 616.5 -187t203.5 -526q0 -30 -9 -131
q-37 -373 -252.5 -596t-490.5 -311t-514 -88q-78 0 -111 4q-143 12 -143 82q0 27 29 45zM963 860q180 0 282.5 105t102.5 247q0 141 -99 240.5t-286 99.5q-117 -1 -202.5 -50t-128 -126t-42.5 -164q0 -138 100.5 -243.5t272.5 -108.5z" />
    <glyph glyph-name="colon" unicode=":" horiz-adv-x="1016" 
d="M520 0q-121 0 -189.5 66t-68.5 155q0 87 68 152t190 65q123 0 190.5 -65t67.5 -156q0 -87 -68 -152t-190 -65zM520 1196q-121 0 -189.5 66t-68.5 155q0 87 68 152t190 65q123 0 190.5 -65t67.5 -156q0 -87 -68 -152t-190 -65z" />
    <glyph glyph-name="semicolon" unicode=";" horiz-adv-x="1016" 
d="M528 1196q-121 0 -189.5 66t-68.5 155q0 87 68 152t190 65q123 0 190.5 -65t67.5 -156q0 -87 -68 -152t-190 -65zM537 -4q-117 0 -194 51t-77 141q0 12 8 54q24 90 95 133t159 43q76 0 144 -37q110 -69 110 -221q0 -114 -69 -217q-74 -106 -173 -184t-147 -78
q-19 0 -24 16q0 30 47.5 72.5t66.5 70.5q54 73 54 156z" />
    <glyph glyph-name="less" unicode="&#x3c;" horiz-adv-x="1569" 
d="M1335 156l-1106 663l1098 672v-254l-696 -418l704 -401v-262z" />
    <glyph glyph-name="equal" unicode="=" horiz-adv-x="1765" 
d="M299 684h1204v-225h-1204v225zM299 1184h1204v-226h-1204v226z" />
    <glyph glyph-name="greater" unicode="&#x3e;" horiz-adv-x="1569" 
d="M283 418l704 401l-696 418v254l1098 -672l-1106 -663v262z" />
    <glyph glyph-name="question" unicode="?" horiz-adv-x="1712" 
d="M881 0q-95 0 -152 61.5t-57 147.5q0 81 53 141t147 60q97 0 153 -61.5t56 -147.5q0 -82 -52.5 -141.5t-147.5 -59.5zM401 1130q-188 7 -188 246q8 110 89.5 197.5t232 137.5t350.5 50q304 0 478.5 -112t180.5 -297q0 -204 -153.5 -310.5t-309.5 -148.5q-37 -9 -45 -111
l-24 -229h-275l-28 283q0 69 8 86q10 16 125.5 58.5t200.5 108t104 189.5q0 269 -283 274q-144 0 -237 -43t-103 -129q0 -28 32.5 -47.5t47 -34t14.5 -65.5q-10 -103 -217 -103z" />
    <glyph glyph-name="at" unicode="@" horiz-adv-x="2150" 
d="M1372 750q-45 -104 -45 -144q0 -49 70 -49q155 0 295 172q147 167 147 369q0 187 -102 328.5t-270.5 217.5t-356.5 76q-154 0 -305.5 -61t-263.5 -164q-121 -112 -187.5 -269t-66.5 -321q0 -220 113 -402.5t306 -285t420 -102.5q220 0 411.5 102t301.5 283h148
q-105 -261 -343 -399t-538 -138q-265 0 -492 126t-359 344.5t-132 475.5q0 399 291 676q287 283 716 283q230 0 429.5 -96.5t319.5 -273t120 -400.5q0 -173 -91 -337t-245 -266t-336 -102q-180 0 -180 160q-154 -147 -332 -147q-137 0 -210 92.5t-73 230.5q0 156 76.5 324.5
t212.5 280.5t301 112q144 0 221 -107l25 66h262zM1147 856q35 68 70.5 174.5t35.5 169.5q0 34 -18 60t-51 26q-94 0 -183 -115.5t-145.5 -268.5t-56.5 -238q0 -103 86 -103q128 0 262 295z" />
    <glyph glyph-name="A" unicode="A" horiz-adv-x="1847" 
d="M156 0q-92 0 -134 16.5t-42 69.5q0 33 49 74q55 32 77 82l91 278q92 288 352 864q80 185 184 377q33 58 68.5 72t111.5 14q103 0 144 -28.5t82 -122.5l512 -1200l86 -258q13 -33 23.5 -44t49.5 -38q50 -26 50 -70q0 -86 -127 -86h-422q-156 0 -156 82q0 42 55.5 71.5
t55.5 55.5q0 64 -103 344l-12 41h-700q-4 -16 -33 -100.5t-45.5 -143t-16.5 -92.5q0 -37 16.5 -56.5t48.5 -38t49 -34.5t17 -47q0 -50 -47 -66t-145 -16h-139zM1081 799l-12 37l-266 626l-283 -663h561z" />
    <glyph glyph-name="B" unicode="B" horiz-adv-x="1847" 
d="M176 0q-123 0 -123 86q0 31 13.5 43.5t48.5 34.5l28 16q45 29 45 135v1196q0 111 -45 140l-28 12q-62 38 -62 82t37.5 65t85.5 21h909q254 0 385 -78q197 -112 197 -328q0 -141 -102.5 -249t-249.5 -168q133 -27 240.5 -91.5t171 -166t63.5 -234.5q0 -244 -193 -385
q-173 -131 -454 -131h-967zM643 995q214 45 383.5 153t169.5 286q0 225 -344 225q-139 0 -184 -45q-25 -33 -25 -135v-484zM643 365q0 -107 37 -144q41 -37 172 -37q189 0 320 86.5t131 266.5q0 122 -84 218t-203 130l-373 -90v-430z" />
    <glyph glyph-name="C" unicode="C" horiz-adv-x="1901" 
d="M1413 1589q-118 94 -270 94q-270 0 -434 -237q-144 -213 -144 -512q0 -296 131 -508q143 -242 459 -242q243 0 430 193l46.5 48t51.5 41.5t58 16.5q35 0 60.5 -26.5t25.5 -63.5q0 -80 -83 -162t-179 -137q-215 -131 -500 -131q-265 0 -490.5 115t-359 324.5t-133.5 478.5
q0 204 82.5 385.5t226 316t330.5 210t389 75.5q332 0 582 -168q65 -35 82 -82q24 -67 24 -275q0 -43 -30 -70.5t-76 -27.5q-45 0 -66.5 29t-56.5 98q-70 153 -156 217z" />
    <glyph glyph-name="D" unicode="D" horiz-adv-x="2048" 
d="M901 1831q227 0 398 -41.5t319 -159.5q328 -251 328 -704q0 -195 -63 -369.5t-191 -302.5q-249 -254 -709 -254h-807q-123 0 -123 86q0 31 13.5 43.5t48.5 34.5l28 16q45 29 45 135v1196q0 111 -45 140l-28 12q-62 38 -62 82t37.5 65t85.5 21h725zM643 418
q0 -146 29.5 -194t163.5 -48q299 0 460.5 207t161.5 518q0 203 -72 374t-216.5 273.5t-350.5 102.5q-86 0 -123 -20t-45 -60.5t-8 -132.5v-1020z" />
    <glyph glyph-name="E" unicode="E" horiz-adv-x="1651" 
d="M643 459q0 -138 22 -191t94 -69.5t253 -18.5q130 0 205 22t151 101q50 60 83 91.5t77 31.5q35 0 62.5 -24.5t27.5 -57.5q0 -67 -53 -229q-23 -77 -51 -96t-113 -19h-1225q-123 0 -123 86q0 31 13.5 43.5t48.5 34.5l28 16q45 29 45 135v1196q0 111 -45 140l-28 12
q-62 38 -62 82t37.5 65t85.5 21h1167q107 0 140 -33q41 -51 41 -237q0 -107 -90 -107q-49 0 -115 74q-71 83 -156 102q-80 21 -250 21q-163 0 -208 -21q-62 -20 -62 -74v-462h377q75 0 104.5 15.5t63 45t65.5 29.5q90 0 90 -172q0 -104 -17 -156.5t-73 -52.5q-34 0 -69.5 29
t-62.5 43t-101 14h-377v-430z" />
    <glyph glyph-name="F" unicode="F" horiz-adv-x="1548" 
d="M639 315q0 -106 45 -135l29 -16q57 -37 57 -78q0 -86 -119 -86h-475q-123 0 -123 86q0 30 11.5 41.5t46.5 36.5l28 16q45 23 45 135v1196q0 117 -45 140l-28 12q-58 40 -58 82q0 86 123 86h1081q132 0 168 -21q21 -14 34.5 -44.5t19.5 -62t9.5 -69t6.5 -61.5
q0 -139 -65 -139q-54 0 -111 65q-89 101 -175 126.5t-251 25.5q-176 0 -217 -33q-37 -37 -37 -156v-422h365q76 0 106 15t64.5 45t66.5 30q86 0 86 -172q0 -105 -16 -156.5t-70 -51.5q-34 0 -68.5 28t-63.5 43t-105 15h-365v-521z" />
    <glyph glyph-name="G" unicode="G" horiz-adv-x="1950" 
d="M1815 1360q-22 -82 -95 -82q-62 0 -98 82q-75 156 -152 213q-120 102 -299 102q-199 0 -336 -115t-203.5 -293.5t-66.5 -373.5q0 -272 144 -498.5t401 -226.5q172 0 266 94q74 78 74 299q0 90 -11 130t-49 57.5t-124 17.5q-108 0 -152.5 17.5t-44.5 76.5q0 103 184 103
h402q136 0 200 -17q41 -15 41 -69q0 -16 -12 -115l-16 -176q0 -127 28 -242q9 -22 9 -53q0 -114 -303 -230q-279 -98 -512 -98q-283 0 -513 110.5t-362.5 322.5t-132.5 497q0 291 138.5 512.5t378.5 342t527 120.5q144 0 297.5 -35t264.5 -100q76 -42 106 -91
q21 -45 21 -221v-61z" />
    <glyph glyph-name="H" unicode="H" horiz-adv-x="2048" 
d="M647 315q0 -106 45 -135l29 -16q57 -36 57 -78q0 -86 -123 -86h-471q-123 0 -123 86q0 31 13 44.5t45 33.5l28 16q46 29 46 135v1196q0 111 -46 140l-28 12q-58 35 -58 82q0 86 123 86h471q123 0 123 -86q0 -47 -57 -82l-29 -12q-45 -29 -45 -140v-426h746v426
q0 111 -45 140l-29 12q-62 38 -62 82t37.5 65t85.5 21h475q123 0 123 -86q0 -45 -61 -82l-25 -12q-45 -23 -45 -140v-1196q0 -112 45 -135l25 -16q61 -39 61 -78q0 -86 -123 -86h-475q-123 0 -123 86q0 31 13.5 43.5t48.5 34.5l29 16q45 29 45 135v586h-746v-586z" />
    <glyph glyph-name="I" unicode="I" horiz-adv-x="848" 
d="M188 1511q0 117 -45 140l-24 12q-62 38 -62 82q0 86 123 86h475q49 0 86 -20.5t37 -65.5t-61 -82l-29 -12q-45 -29 -45 -140v-1196q0 -106 45 -135l29 -16q61 -39 61 -78q0 -86 -123 -86h-475q-123 0 -123 86q0 31 13.5 43.5t48.5 34.5l24 16q45 23 45 135v1196z" />
    <glyph glyph-name="J" unicode="J" horiz-adv-x="1401" 
d="M770 1511q0 111 -45 140l-29 12q-57 36 -57 82q0 86 119 86h475q123 0 123 -86q0 -47 -58 -82l-28 -12q-45 -23 -45 -140v-950q0 -153 -27.5 -261.5t-116.5 -188.5q-85 -74 -218 -111t-265 -37q-149 0 -284.5 43.5t-222.5 141t-87 249.5t103 246t253 94q81 0 147 -36.5
t66 -110.5q0 -50 -29 -70t-89.5 -39.5t-91.5 -49t-31 -95.5q0 -81 61.5 -130.5t147.5 -49.5q137 0 183 95.5t46 252.5v1007z" />
    <glyph glyph-name="K" unicode="K" horiz-adv-x="1950" 
d="M655 315q0 -112 45 -135l29 -16q57 -41 57 -78q0 -86 -122 -86h-476q-122 0 -122 86q0 39 61 78l29 16q45 29 45 135v1196q0 111 -45 140l-29 12q-61 37 -61 82q0 86 122 86h476q122 0 122 -86q0 -43 -57 -82l-29 -12q-45 -23 -45 -140v-573l410 328q287 265 287 344
q0 24 -14 38t-40 28.5t-39.5 30.5t-13.5 46q0 78 115 78h307q58 0 98 -16q58 -24 58 -82q0 -53 -82 -91q-72 -37 -112.5 -76t-117.5 -132l-323 -336q292 -309 573 -807q50 -92 115 -127q40 -21 55 -36t15 -54q0 -74 -119 -74h-479q-152 0 -152 82q0 41 43 74t43 53
q0 83 -164 312t-270 335l-193 -147v-394z" />
    <glyph glyph-name="L" unicode="L" horiz-adv-x="1499" 
d="M193 1511q0 111 -46 140l-28 12q-58 35 -58 82q0 86 123 86h471q123 0 123 -86q0 -47 -57 -82l-29 -12q-45 -29 -45 -140v-1175q0 -105 31 -127t145 -29h95q128 0 203.5 22.5t148.5 100.5q63 69 91.5 96t72.5 27q35 0 62.5 -24.5t27.5 -57.5q0 -72 -54 -229
q-24 -78 -51.5 -96.5t-115.5 -18.5h-1119q-123 0 -123 86q0 31 13 44.5t45 33.5l28 16q46 29 46 135v1196z" />
    <glyph glyph-name="M" unicode="M" horiz-adv-x="2298" 
d="M1544 1700q35 85 60.5 108t103.5 23h467q35 0 58.5 -24t23.5 -66q0 -43 -22.5 -60t-71.5 -34q-47 -13 -60.5 -40t-13.5 -83v-1209q0 -106 45 -135l29 -16q57 -37 57 -78q0 -86 -123 -86h-475q-119 0 -119 86q0 31 13 44.5t45 33.5l28 16q45 29 45 135v1086l-405 -1004
q-34 -79 -46 -101t-42.5 -38t-91.5 -16q-89 0 -122.5 16.5t-66.5 85.5l-442 1028v-1061q8 -58 16 -82q9 -22 23.5 -34t33.5 -19.5t37 -15.5q66 -25 66 -82q0 -78 -172 -78h-217q-168 0 -168 78q0 59 61 82q46 18 65 28.5t30 40.5q8 24 16 82v1200q0 33 -8 54q-22 69 -99 90
q-50 17 -72 33t-22 57q0 86 144 86h487q79 0 105 -37.5t63 -142.5l348 -897z" />
    <glyph glyph-name="N" unicode="N" horiz-adv-x="1901" 
d="M1503 1516q0 21 -12 81q-22 48 -98 70q-62 32 -62 86q0 78 172 78h217q168 0 168 -78q0 -55 -61 -86q-77 -23 -94 -70q-10 -21 -17 -81v-1356q0 -112 -25.5 -144t-134.5 -32q-90 0 -126 36q-33 33 -185 263l-782 1077v-1049q8 -58 16 -82q9 -22 23.5 -34t33.5 -19.5
t37 -15.5q66 -25 66 -82q0 -78 -172 -78h-217q-168 0 -168 78q0 59 61 82q46 18 65 28.5t30 40.5q8 24 16 82v1106q-1 40 -1 80q-1 40 -10 70.5t-30.5 52.5t-65.5 35q-50 17 -72 33t-22 57q0 86 144 86h340q74 0 98.5 -8.5t73.5 -57.5q66 -71 141 -168.5l139.5 -186.5
l177.5 -247l336 -475v828z" />
    <glyph glyph-name="O" unicode="O" horiz-adv-x="2150" 
d="M360 233q-278 268 -278 685q0 203 75.5 378.5t211.5 305t314.5 198t381.5 68.5q204 0 387.5 -68.5t321 -195t214 -302t76.5 -384.5q0 -271 -136.5 -490.5t-368.5 -342t-502 -122.5q-188 0 -373.5 71t-323.5 199zM1577 909q0 182 -47.5 356t-161.5 292t-299 118
q-266 0 -405 -274q-99 -198 -99 -475q0 -178 47.5 -354.5t159.5 -298t293 -121.5q186 0 301 115t163 286.5t48 355.5z" />
    <glyph glyph-name="P" unicode="P" horiz-adv-x="1700" 
d="M639 311q8 -58 16 -82q13 -31 29.5 -40t65.5 -29q61 -25 61 -82q0 -78 -168 -78h-467q-123 0 -123 86q0 30 11.5 41.5t46.5 36.5l28 16q45 23 45 135v1196q0 117 -45 140l-28 12q-58 40 -58 82q0 86 123 86h770q296 0 475 -90q124 -64 193 -168t69 -242q0 -167 -103 -296
t-269 -212q-136 -67 -300.5 -95.5t-371.5 -39.5v-377zM639 881q226 30 391.5 132.5t165.5 301.5q0 159 -101.5 249.5t-258.5 90.5q-119 0 -160 -45q-37 -37 -37 -148v-581z" />
    <glyph glyph-name="Q" unicode="Q" horiz-adv-x="2150" 
d="M1008 -37q-260 0 -473.5 124t-335 341t-121.5 477q0 275 132.5 496t361 344t501.5 123q200 0 380.5 -65t315.5 -197q132 -127 207.5 -308.5t75.5 -371.5q0 -201 -83.5 -385t-234.5 -317.5t-345 -194.5q138 -103 290 -103q38 0 106 10.5t107 10.5q60 0 98 -38t38 -97
q0 -83 -84 -119.5t-183 -36.5q-370 0 -618 315zM987 414q0 143 98 143q61 0 74.5 -36t24.5 -124q5 -94 61 -213q174 65 247 271t73 438q0 293 -117.5 537.5t-382.5 244.5q-268 0 -384 -226.5t-116 -522.5q0 -170 45 -340.5t151 -290.5t275 -131q-49 143 -49 250z" />
    <glyph glyph-name="R" unicode="R" horiz-adv-x="1847" 
d="M647 315q0 -106 45 -135l29 -16q57 -36 57 -78q0 -86 -123 -86h-475q-123 0 -123 86q0 31 13.5 43.5t48.5 34.5l24 16q45 23 45 135v1192q0 117 -45 140l-24 16q-36 23 -49 35t-13 43q0 86 123 86l889 4q275 0 414 -70q104 -51 168.5 -150.5t64.5 -217.5
q0 -304 -381 -484q190 -204 348 -610q31 -68 50.5 -95t68.5 -57q38 -22 50 -32.5t12 -40.5q0 -74 -131 -74h-488q-68 0 -109.5 14.5t-41.5 67.5q0 38 53 71t53 68q0 88 -110.5 286.5t-196.5 295.5l-246 -41v-447zM643 954q221 4 403.5 98.5t182.5 290.5q0 155 -100.5 231.5
t-260.5 76.5q-139 0 -184 -49q-41 -37 -41 -164v-484z" />
    <glyph glyph-name="S" unicode="S" horiz-adv-x="1700" 
d="M1085 1135q257 -63 365 -152q180 -147 180 -373q0 -295 -241 -479q-224 -168 -558 -168q-265 0 -479 94q-114 58 -206.5 151.5t-92.5 192.5q0 55 35.5 97.5t87.5 42.5q83 0 139 -95l41 -58t42.5 -58t39.5 -40.5t49 -39.5q138 -90 320 -90q145 0 265 76t120 215
q0 135 -127 192q-96 51 -320 90q-267 53 -401 139q-221 156 -221 402q0 127 64.5 248.5t172.5 201.5q194 144 504 144q303 0 553 -131q57 -34 66 -74q20 -57 20 -225q0 -103 -94 -103q-41 0 -76.5 52l-87 130t-136 126.5t-224.5 48.5q-121 0 -216.5 -64.5t-95.5 -177.5
q0 -119 82.5 -172.5t233.5 -93.5z" />
    <glyph glyph-name="T" unicode="T" horiz-adv-x="1700" 
d="M614 1507q0 79 -15 107t-83 28q-125 0 -183.5 -37.5t-118 -102t-103.5 -64.5q-95 0 -95 94q0 42 13 78q32 183 61 205q21 16 111 16h1282q90 0 110 -16q47 -37 62 -205q12 -37 12 -78q0 -94 -94 -94q-44 0 -104 64.5t-118.5 102t-183.5 37.5q-67 0 -82.5 -28t-15.5 -107
v-1192q0 -106 45 -135l29 -16q57 -36 57 -78q0 -86 -119 -86h-475q-123 0 -123 86q0 31 13 44.5t45 33.5l28 16q45 29 45 135v1192z" />
    <glyph glyph-name="U" unicode="U" horiz-adv-x="1901" 
d="M606 786q0 -286 66 -417q102 -213 381 -213q108 0 212 51.5t152 140.5q66 123 66 434v774q0 52 -17 70t-65 41q-66 29 -66 78q0 86 148 86h217q147 0 147 -86q0 -46 -65 -78q-51 -23 -68.5 -41t-17.5 -70v-737q0 -213 -26 -363.5t-122 -262.5q-191 -230 -618 -230
q-158 0 -318.5 45.5t-263.5 143.5q-117 115 -156.5 272t-39.5 362v725q0 116 -46 140l-24 12q-62 38 -62 82q0 86 123 86h480q135 0 135 -86q0 -50 -58 -78q-63 -24 -73.5 -45t-20.5 -115v-721z" />
    <glyph glyph-name="V" unicode="V" horiz-adv-x="1847" 
d="M1036 324h4q189 442 238 577q180 472 180 631q0 47 -22 71.5t-67.5 49t-66 43.5t-20.5 57q0 78 143 78h283q139 0 139 -86q0 -45 -49 -86q-47 -38 -62.5 -64.5t-31.5 -91.5q-62 -231 -135.5 -414.5l-253.5 -613.5q-109 -265 -172 -377q-45 -79 -88 -107t-133 -28
q-81 0 -119.5 10.5t-63 37.5t-71.5 100q-196 319 -332 684l-234 753q-10 51 -27.5 78t-38.5 42.5t-38.5 32.5t-17.5 44q0 86 159 86h414q156 0 156 -86q0 -33 -18 -49t-55 -35t-56 -38.5t-19 -57.5q0 -156 193 -639z" />
    <glyph glyph-name="W" unicode="W" horiz-adv-x="2499" 
d="M1020 311q-53 -166 -123 -270q-58 -78 -176 -78q-85 0 -132 23t-70.5 61.5t-67.5 136.5q-181 420 -320 1159l-33 185q-11 64 -18.5 84t-46.5 47q-53 44 -53 86q0 86 176 86h405q123 0 123 -90q0 -40 -61 -78q-39 -17 -52.5 -36.5t-13.5 -65.5q0 -202 102 -598l177 -562
q116 292 178.5 543.5t62.5 513.5q0 164 -73 213l-29 23t-21 23t-8 28q0 86 127 86h451q114 0 114 -90q0 -29 -14.5 -42.5t-44.5 -31t-46.5 -40t-16.5 -62.5q0 -180 131 -611l213 -561l176 516q110 401 110 607q0 59 -22 89t-67 55.5t-60 39t-15 49.5q0 82 181 82h217
q123 0 123 -78q0 -31 -45 -78q-69 -62 -86 -135l-41 -254q-23 -158 -84.5 -391t-120.5 -408l-94 -245q-83 -192 -107 -222q-48 -57 -176 -57q-87 0 -132 24.5t-89 98.5q-68 123 -119.5 253.5t-96.5 265.5l-104 313z" />
    <glyph glyph-name="X" unicode="X" horiz-adv-x="1847" 
d="M131 0q-135 0 -135 82q0 52 86 90q54 29 77 55.5t83 108.5l409 565q-221 242 -467 660q-44 70 -90 94q-86 42 -86 94q0 66 82 82h537q66 -10 94.5 -21.5t28.5 -60.5q0 -36 -41 -68t-41 -51q0 -30 64.5 -122t143 -194l132.5 -171q307 383 307 463q0 25 -16 40.5t-47.5 33
t-45.5 33t-14 44.5q0 74 111 74h282q164 0 164 -86q0 -46 -82 -94q-45 -25 -78 -66l-102 -147l-348 -443l458 -594l74 -114q42 -62 59 -79.5t68 -43.5q70 -32 70 -82q0 -82 -144 -82h-561q-69 27 -69 86q0 40 45 67t45 40q0 43 -165.5 266.5t-236.5 294.5
q-90 -113 -200.5 -286t-110.5 -239q0 -28 13 -43.5t40 -34.5t42.5 -36t15.5 -41q0 -60 -74 -74h-377z" />
    <glyph glyph-name="Y" unicode="Y" horiz-adv-x="1847" 
d="M1278 1233l82 135q110 163 110 225q0 25 -15.5 40.5t-47 35t-45.5 35t-14 41.5q0 86 135 86h217q84 0 122 -15.5t38 -70.5q0 -36 -50 -78q-49 -36 -61.5 -48.5t-44.5 -62.5l-549 -806v-435q0 -77 13.5 -103t64.5 -48q61 -31 61 -78q0 -86 -123 -86h-471q-135 0 -135 86
q0 44 58 74q57 34 67 56t10 103v410l-516 799q-31 56 -51.5 74.5t-79.5 52.5q-73 36 -73 90q0 55 62.5 70.5t207.5 15.5h381q131 0 131 -90q0 -25 -13 -39t-44.5 -31.5t-42.5 -27t-11 -29.5q0 -81 119 -258l287 -422z" />
    <glyph glyph-name="Z" unicode="Z" horiz-adv-x="1548" 
d="M1339 1831q83 0 130 -17t47 -85q0 -166 -476 -828l-389 -545q-78 -94 -78 -139q0 -24 66 -24h246q159 0 258 26t188 117q69 78 115 78q86 0 86 -82q0 -42 -29 -189l-12 -82q-20 -42 -45.5 -51.5t-77.5 -9.5h-1122q-94 0 -151.5 25t-57.5 106q0 114 217 418l291 422
l270 372l103 160q69 98 69 119q0 29 -65 29h-172q-105 0 -242 -21q-71 -16 -109.5 -39t-79.5 -75q-70 -82 -114 -82q-86 0 -86 82q0 197 33 274q16 41 110 41h1077z" />
    <glyph glyph-name="bracketleft" unicode="[" horiz-adv-x="799" 
d="M176 1708q0 63 10.5 87t37.5 30t100 6h249q172 0 172 -90q0 -52 -69 -82q-92 -30 -113.5 -65t-21.5 -160v-1536q0 -98 15 -138.5t67 -58.5q60 -19 91 -37t31 -61q0 -90 -172 -90h-249q-73 0 -100 5.5t-37.5 28.5t-10.5 84v2077z" />
    <glyph glyph-name="backslash" unicode="\" horiz-adv-x="1597" 
d="M319 1892h181l782 -1892h-180z" />
    <glyph glyph-name="bracketright" unicode="]" horiz-adv-x="799" 
d="M479 1831q101 0 124.5 -17.5t23.5 -105.5v-2077q0 -84 -23.5 -101t-124.5 -17h-246q-180 0 -180 90q0 42 30 59t97 39q86 29 86 123q0 11 -2 39t-2 43v1528q0 122 -22 157.5t-113 67.5q-74 32 -74 82q0 90 180 90h246z" />
    <glyph glyph-name="asciicircum" unicode="^" horiz-adv-x="1651" 
d="M74 446l635 1385h225l639 -1385h-238l-520 1135l-508 -1135h-233z" />
    <glyph glyph-name="underscore" unicode="_" horiz-adv-x="1249" 
d="M1151 -123v-242h-1045v242h1045z" />
    <glyph glyph-name="grave" unicode="`" horiz-adv-x="950" 
d="M422 1827q70 -3 92.5 -21.5t58.5 -85.5l132 -229q36 -63 36 -82q0 -22 -17 -35.5t-40 -13.5q-28 0 -102 53l-320 238l-39.5 31.5t-27.5 32.5t-11 42q0 70 127 70h111z" />
    <glyph glyph-name="a" unicode="a" horiz-adv-x="1450" 
d="M1290 344q0 -106 13 -139q12 -26 53 -49q61 -28 61 -74q0 -53 -35 -67.5t-96 -14.5h-250q-91 0 -111.5 29.5t-23.5 126.5q-119 -193 -389 -193q-186 0 -318.5 102.5t-132.5 282.5q0 164 115.5 263.5t280.5 139.5t329 40h86q0 119 -59 190.5t-174 71.5q-51 0 -85.5 -20
t-77.5 -59.5t-79.5 -60t-89.5 -20.5q-64 0 -109.5 30t-45.5 93q0 111 179.5 158t336.5 47q258 0 417 -91q205 -118 205 -393v-393zM840 635q-147 0 -252 -73.5t-105 -213.5q0 -74 41.5 -127t114.5 -53q111 0 192 119q54 86 54 266v82h-45z" />
    <glyph glyph-name="b" unicode="b" horiz-adv-x="1548" 
d="M553 1094q158 127 352 127q260 0 412.5 -165.5t152.5 -432.5q0 -205 -100.5 -355t-272.5 -227.5t-376 -77.5q-254 0 -418 111q-96 72 -128 173t-32 249v880q0 131 -4 189q-12 52 -73 90q-62 34 -62 69q0 43 41.5 61t110.5 34q222 73 295 73q65 0 83.5 -62t18.5 -183v-553
zM561 524q0 -389 217 -389q142 0 202 134.5t60 299.5q0 163 -56.5 313t-188.5 150q-120 0 -189 -102q-45 -62 -45 -209v-197z" />
    <glyph glyph-name="c" unicode="c" horiz-adv-x="1298" 
d="M807 176h8q160 0 287 127q60 62 102 62q31 0 52.5 -23t21.5 -55q0 -85 -139 -193q-207 -131 -410 -131q-180 0 -335 75.5t-246 215t-91 324.5q0 192 90 338t246.5 225.5t343.5 79.5q93 0 214 -28.5t209.5 -91t88.5 -155.5q0 -61 -41 -98t-102 -37q-62 0 -97.5 27.5
t-79 85t-82 87t-102.5 29.5q-134 0 -193 -142.5t-65 -311.5h5q0 -165 79.5 -287.5t235.5 -122.5z" />
    <glyph glyph-name="d" unicode="d" horiz-adv-x="1548" 
d="M979 1376q0 131 -8 189q-13 53 -74 90q-61 34 -61 69q0 43 40.5 60t110.5 35q225 73 295 73q65 0 83.5 -60t18.5 -185v-1303q0 -106 13 -139q12 -24 53 -49q66 -30 66 -74q0 -53 -36.5 -67.5t-99.5 -14.5h-250q-87 0 -106.5 29t-28.5 127q-115 -193 -368 -193
q-251 0 -414.5 176.5t-163.5 433.5q0 180 81.5 328.5t227 234t326.5 85.5q154 0 295 -82v237zM979 778q0 121 -53 185q-64 77 -168 77q-149 0 -214 -140.5t-65 -309.5q0 -166 60 -296t206 -130q129 0 193 102q41 64 41 180v332z" />
    <glyph glyph-name="e" unicode="e" horiz-adv-x="1401" 
d="M831 164q169 0 336 147q58 58 103 58q26 0 49.5 -21.5t23.5 -48.5q0 -59 -67 -126t-137 -107q-182 -103 -414 -103q-173 0 -327.5 72t-249.5 207t-95 311q0 200 104 352.5t277.5 234t368.5 81.5q197 0 354.5 -92.5t157.5 -272.5q0 -125 -100.5 -209.5t-239.5 -130.5
q-67 -20 -134 -33t-148 -25l-185 -28q25 -119 113.5 -192.5t209.5 -73.5zM926 885q0 74 -37.5 119t-110.5 45q-140 0 -217.5 -139.5t-77.5 -311.5q166 12 304.5 80t138.5 207z" />
    <glyph glyph-name="f" unicode="f" horiz-adv-x="901" 
d="M631 336q0 -103 12 -135q13 -27 57 -45q58 -30 58 -74q0 -54 -35.5 -68t-99.5 -14h-390q-64 0 -99.5 14.5t-35.5 67.5q0 44 58 74q44 18 57 45q12 32 12 135v672h-32q-77 0 -110.5 16.5t-33.5 81.5q0 41 25 65q28 29 106 29h49q0 149 11 254.5t51 196.5q109 241 409 241
q95 0 179 -42.5t84 -129.5q0 -60 -39.5 -101.5t-100.5 -41.5q-41 0 -95.5 37t-59.5 37q-37 0 -37 -144v-307h74q100 0 142 -16t42 -74q0 -65 -39.5 -83.5t-136.5 -18.5h-82v-672z" />
    <glyph glyph-name="g" unicode="g" horiz-adv-x="1499" 
d="M918 1212l229 -12h139q80 0 122 -16.5t42 -85.5q0 -90 -152 -90h-65q139 -153 139 -357q0 -301 -254 -463q295 -72 295 -294q0 -213 -219.5 -297t-480.5 -84q-220 0 -429.5 48t-209.5 193q0 98 84.5 149.5t189.5 51.5q135 0 135 -66q0 -12 -8 -28q-12 -19 -12 -37
q0 -56 83.5 -79.5t158.5 -23.5q323 0 323 185q0 116 -168 188q-85 -28 -192 -28q-170 0 -310 65.5t-222.5 192.5t-82.5 299q0 134 51.5 255t153.5 203q182 140 487 140zM942 668q0 147 -51 272t-174 125t-178.5 -134.5t-55.5 -279.5q0 -154 46 -279.5t171 -125.5
q138 0 190 130.5t52 291.5z" />
    <glyph glyph-name="h" unicode="h" horiz-adv-x="1548" 
d="M1401 315q0 -98 12 -131q4 -7 45 -41q45 -29 45 -65q0 -78 -94 -78h-422q-94 0 -94 78q0 36 45 65q41 34 45 41q12 33 12 131v418q0 129 -41.5 208t-162.5 79q-100 0 -168 -74q-54 -64 -54 -176v-455q0 -98 13 -131q5 -11 45 -41q45 -30 45 -65q0 -78 -94 -78h-422
q-95 0 -95 78q0 35 45 65q40 31 46 41q12 33 12 131v1061q0 131 -8 189q-13 53 -74 90q-62 34 -62 69q0 43 41 60t111 35q225 73 295 73q65 0 83.5 -60t18.5 -185v-545q172 119 365 119q232 0 356 -136q111 -114 111 -372v-398z" />
    <glyph glyph-name="i" unicode="i" horiz-adv-x="750" 
d="M119 1552q0 93 73 151t168 58q101 0 173.5 -52t72.5 -148q0 -90 -78 -143.5t-172 -53.5q-89 0 -163 51.5t-74 136.5zM197 709q0 131 -9 184q-12 53 -73 90l-32 21.5t-22 20.5t-8 28q0 45 39.5 62.5t112.5 35.5q207 70 295 70q65 0 83.5 -59t18.5 -183v-664q0 -98 8 -131
q3 -3 49 -41q46 -29 46 -65q0 -78 -95 -78h-422q-94 0 -94 78q0 39 45 65q40 30 45 41q13 33 13 131v394z" />
    <glyph glyph-name="j" unicode="j" horiz-adv-x="750" 
d="M156 1552q0 93 73 151t168 58q101 0 173.5 -52t72.5 -148q0 -89 -79.5 -143t-170.5 -54q-89 0 -163 51.5t-74 136.5zM221 709q0 131 -8 183.5t-70 90.5l-28.5 19t-24.5 22t-8 29q0 44 39 62t112 36q207 70 295 70q64 0 83.5 -62t19.5 -180v-877q0 -274 -78 -389
q-58 -93 -157 -146.5t-212 -53.5q-109 0 -206 44.5t-97 139.5q0 56 38.5 95.5t96.5 39.5q63 0 120 -47t61 -47q24 0 24 102v869z" />
    <glyph glyph-name="k" unicode="k" horiz-adv-x="1499" 
d="M1004 782l-33 -28q208 -188 389 -512q26 -54 74 -82q57 -37 57 -78q0 -82 -119 -82h-409q-127 0 -127 82q0 31 38.5 55.5t38.5 46.5q0 37 -47 114.5t-110.5 156t-100.5 106.5l-90 -53v-193q0 -98 8 -131q6 -7 50 -41q45 -30 45 -65q0 -78 -95 -78h-421q-99 0 -99 78
q0 35 45 65q41 26 49 41q9 33 9 131v1061q0 131 -4 189q-13 53 -74 90q-62 34 -62 69q0 43 41 60t111 35q225 73 295 73q65 0 83.5 -60t18.5 -185v-963q83 30 232 151.5t149 180.5q0 26 -33 45q-57 24 -57 69q0 48 66 62q57 8 254 8q196 0 196 -70q0 -26 -12 -42t-35 -30.5
t-39 -25.5q-62 -33 -147 -127z" />
    <glyph glyph-name="l" unicode="l" horiz-adv-x="750" 
d="M184 1376q0 131 -8 189q-12 52 -74 90q-61 35 -61 69q0 43 41.5 61t110.5 34q222 73 294 73q65 0 84 -60t19 -185v-1311q0 -103 12 -135q7 -22 53 -45q62 -32 62 -74q0 -54 -35.5 -68t-99.5 -14h-394q-62 0 -98.5 14.5t-36.5 67.5q0 42 62 74q44 18 53 45q16 32 16 135
v1040z" />
    <glyph glyph-name="m" unicode="m" horiz-adv-x="2298" 
d="M2150 315q0 -98 13 -131q5 -11 45 -41q45 -30 45 -65q0 -78 -94 -78h-422q-95 0 -95 78q0 36 46 65q40 33 45 41q12 33 12 131v390q0 132 -28.5 211t-135.5 79q-110 0 -172 -82q-45 -61 -45 -221v-377q0 -98 8 -131q2 -3 49 -41q45 -29 45 -65q0 -78 -94 -78h-422
q-94 0 -94 78q0 40 45 65q40 30 45 41q12 33 12 131v390q0 132 -28.5 211t-134.5 79q-110 0 -172 -82q-45 -61 -45 -221v-377q0 -98 8 -131q6 -8 49 -41q45 -30 45 -65q0 -78 -94 -78h-422q-98 0 -98 78q0 36 45 65q42 27 49 41q8 33 8 131v480q0 83 -13 116.5t-61 59.5
q-53 18 -53 65q0 60 155 122.5t230 62.5q56 0 78.5 -51t36.5 -130q154 181 401 181t356 -201q139 201 426 201q195 0 316 -115q110 -101 110 -340v-451z" />
    <glyph glyph-name="n" unicode="n" horiz-adv-x="1548" 
d="M1401 315q0 -98 12 -131q4 -7 45 -41q45 -29 45 -65q0 -78 -94 -78h-422q-94 0 -94 78q0 36 45 65q41 34 45 41q12 33 12 131v406q0 138 -32.5 214.5t-151.5 76.5q-133 0 -193 -103q-36 -61 -36 -204v-390q0 -98 8 -131q8 -15 49 -41q45 -29 45 -65q0 -78 -98 -78h-422
q-94 0 -94 78q0 36 45 65q47 38 49 41q8 33 8 131v480q0 83 -13 116.5t-61 59.5q-53 18 -53 65q0 60 155 122.5t230 62.5q86 0 111 -181q150 181 397 181q231 0 356 -131q107 -118 107 -361v-414z" />
    <glyph glyph-name="o" unicode="o" horiz-adv-x="1548" 
d="M287 119q-221 175 -221 467q0 263 213 454q204 181 516 181q133 0 258.5 -45t222.5 -126.5t154 -197t57 -254.5q0 -187 -101 -332t-266 -224t-350 -79q-293 0 -483 156zM1057 614q0 171 -63 298.5t-216 127.5q-104 0 -167.5 -67t-89 -165.5t-25.5 -205.5q0 -467 278 -467
q283 0 283 479z" />
    <glyph glyph-name="p" unicode="p" horiz-adv-x="1597" 
d="M606 -123q0 -106 12 -135q10 -28 54 -45q61 -39 61 -78q0 -51 -36.5 -64.5t-98.5 -13.5h-393q-65 0 -100 13.5t-35 64.5q0 39 61 78q44 17 53 45q13 29 13 135v918q0 83 -13.5 116.5t-60.5 59.5q-53 17 -53 65q0 60 155 122.5t230 62.5q88 0 110 -181q169 181 385 181
q179 0 311.5 -82t203.5 -224t71 -317q0 -176 -79 -321.5t-219.5 -229.5t-311.5 -84q-86 0 -172 36.5t-86 111.5q0 61 53 61q18 0 57 -4t58 -4q107 0 188 102q82 121 82 316q0 159 -63 292.5t-203 133.5q-110 0 -176 -78q-58 -66 -58 -238v-815z" />
    <glyph glyph-name="q" unicode="q" horiz-adv-x="1548" 
d="M983 98q-141 -135 -360 -135q-158 0 -287.5 78t-202 213.5t-72.5 294.5q0 184 83 338t231.5 244t329.5 90q205 0 376 -119q143 119 222 119q58 0 72 -34.5t14 -101.5v-1224q0 -103 12 -135q13 -27 57 -45q58 -30 58 -74q0 -54 -35.5 -68t-100.5 -14h-389
q-64 0 -99.5 14.5t-35.5 67.5q0 44 57 74q43 16 58 45q12 32 12 135v237zM983 717q0 132 -51 227.5t-170 95.5q-150 0 -210 -141.5t-60 -316.5q0 -167 60.5 -301t205.5 -134q113 0 180 95q45 57 45 184v291z" />
    <glyph glyph-name="r" unicode="r" horiz-adv-x="1098" 
d="M631 336q0 -103 12 -135q13 -27 57 -45q58 -30 58 -74q0 -54 -35.5 -68t-99.5 -14h-390q-64 0 -99.5 14.5t-35.5 67.5q0 44 58 74q44 18 57 45q12 32 12 135v459q0 21 -16 65q-9 41 -27 57.5t-63 36.5q-66 30 -66 82q0 62 123 115q232 70 262 70q71 0 95.5 -66.5
t48.5 -191.5q50 104 137 181t186 77q84 0 136.5 -51.5t52.5 -133.5q0 -65 -35.5 -118.5t-95.5 -53.5q-35 0 -87.5 16.5t-80.5 16.5q-73 0 -115 -94q-49 -88 -49 -266v-201z" />
    <glyph glyph-name="s" unicode="s" horiz-adv-x="1249" 
d="M803 745q174 -43 269 -117.5t95 -234.5q0 -205 -196 -332q-163 -98 -389 -98q-191 0 -328 66q-201 86 -201 213q0 47 30.5 80.5t76.5 33.5q54 0 114 -69q76 -83 125 -115.5t133 -32.5q78 0 145.5 38t67.5 110q0 82 -62.5 107.5t-239 68.5t-263 113.5t-86.5 222.5
q0 212 174 317t400 105q252 0 393 -95q53 -32 53 -168q0 -122 -74 -122q-44 0 -97.5 71.5t-97.5 108.5t-149 37q-75 0 -133.5 -35.5t-58.5 -104.5q0 -90 184 -135z" />
    <glyph glyph-name="t" unicode="t" horiz-adv-x="950" 
d="M606 369q0 -96 25 -136t114 -40q82 0 127.5 -17t45.5 -82q0 -94 -168 -94h-344q-124 0 -166.5 34t-42.5 159v811h-50q-74 0 -112.5 17t-38.5 81q0 76 102 90q127 15 168 78q38 60 70 225q13 75 38.5 101t96.5 26q85 0 106 -20.5t21 -98.5v-303h147q76 0 116 -16t40 -82
q0 -98 -151 -98h-144v-635z" />
    <glyph glyph-name="u" unicode="u" horiz-adv-x="1548" 
d="M152 836q0 87 -9.5 118t-44.5 54q-45 30 -45 65q0 36 41 57q45 31 246 70q10 21 86 21q87 0 111 -51.5t24 -153.5v-570q0 -131 29.5 -204.5t138.5 -73.5t184 90q45 53 45 193v385q0 75 -9 108.5t-48 63.5q-41 33 -41 65q0 39 37 57q52 32 246 70q87 17 114 17
q82 0 107 -58v-815q0 -106 12 -139q15 -28 58 -49q61 -32 61 -74q0 -53 -36.5 -67.5t-98.5 -14.5h-217q-88 0 -115 29t-41 123q-177 -189 -426 -189q-243 0 -360 189q-49 63 -49 270v414z" />
    <glyph glyph-name="v" unicode="v" horiz-adv-x="1348" 
d="M918 569q35 74 68.5 194t33.5 187q0 39 -15.5 61t-44.5 42t-42 34.5t-13 42.5q0 70 135 70h140q86 0 120.5 -11.5t34.5 -49.5q0 -46 -32 -78q-41 -40 -52 -60.5t-26 -87.5l-29 -106q-77 -291 -233 -586q-70 -147 -127 -209q-44 -49 -148 -49q-85 0 -129.5 21.5
t-91.5 89.5q-223 342 -365 868q-19 76 -53 107q-57 31 -57 73q0 78 147 78h324q160 0 160 -74q0 -28 -12 -42t-38 -34t-39.5 -38t-13.5 -45q0 -75 45.5 -208.5t112.5 -276t113 -212.5z" />
    <glyph glyph-name="w" unicode="w" horiz-adv-x="1999" 
d="M1855 1200q152 0 152 -70q0 -38 -33 -69q-49 -58 -69 -127l-209 -643q-80 -199 -156 -275q-53 -53 -160 -53q-72 0 -113 17t-79 69q-87 111 -197 410q-98 -267 -196 -402q-41 -55 -80.5 -74.5t-108.5 -19.5q-110 0 -158 44t-108 169q-144 295 -221 643l-29 127
q-17 74 -33 86q-61 46 -61 90q0 78 115 78h360q63 0 95 -13.5t32 -64.5q0 -30 -10 -42.5t-32.5 -26.5t-33 -26t-10.5 -36q0 -92 78 -385q59 -212 139 -344q152 294 152 606q0 73 -9.5 112.5t-52.5 72.5q-45 45 -45 77q0 70 115 70h332q135 0 135 -78q0 -32 -21.5 -48.5
l-43 -33.5t-21.5 -49q0 -103 73 -340l148 -389q70 131 139.5 344t69.5 332q0 47 -16 71.5t-45 44t-41.5 33.5t-12.5 48q0 65 139 65h131z" />
    <glyph glyph-name="x" unicode="x" horiz-adv-x="1401" 
d="M184 0q-172 0 -172 82q0 48 58 74q57 32 70 45t69 86l250 286l-307 398q-30 47 -86 78q-58 32 -58 77q0 74 111 74h430q119 0 119 -70q0 -27 -27 -56t-27 -46q0 -20 33 -64.5t79 -97.5l73 -84q43 39 101 116.5t58 117.5q0 21 -43 49t-43 65q0 44 33 57t111 13h143
q144 0 144 -65q0 -46 -66 -86q-42 -31 -74 -78q-106 -151 -262 -307l254 -316l49.5 -70.5t54.5 -68t56 -45.5q82 -42 82 -90q0 -31 -27.5 -52.5t-62.5 -21.5h-447q-131 0 -131 78q0 33 28.5 61.5t28.5 36.5q0 24 -76 116t-108 122l-37 41q-40 -40 -99.5 -123.5t-59.5 -118.5
q0 -22 11.5 -32.5t38 -25.5t41.5 -32.5t15 -48.5q0 -45 -41.5 -59.5t-134.5 -14.5h-152z" />
    <glyph glyph-name="y" unicode="y" horiz-adv-x="1348" 
d="M438 1200q160 0 160 -82q0 -26 -30 -56t-43 -49t-13 -71q0 -220 82 -450q29 -91 83 -187t114 -96q70 0 123.5 138.5t83.5 313t30 252.5q0 66 -10 92.5t-55 51.5q-54 30 -54 73q0 44 33 57t111 13h143q156 0 156 -61q0 -33 -41 -82q-3 -6 -11.5 -16.5t-13.5 -19.5t-8 -17
q-11 -32 -41 -230q-38 -249 -153.5 -544t-305.5 -506t-430 -211q-80 0 -152.5 41t-72.5 114q0 59 44.5 95t102.5 36q48 0 113 -26.5t80 -26.5q73 0 184 123q66 72 111 168q-58 -17 -119 -17q-171 0 -307 136q-101 104 -154.5 314t-99.5 501q-9 61 -47.5 93t-38.5 66
q0 70 123 70h323z" />
    <glyph glyph-name="z" unicode="z" horiz-adv-x="1249" 
d="M233 0q-192 0 -192 111q0 75 106 221l562 712h-189q-93 0 -148.5 -18t-101.5 -84q-53 -82 -102 -82q-70 0 -70 78q0 117 41 217q21 45 119 45h758q80 0 126 -15.5t46 -78.5q0 -83 -148 -275l-499 -663h188q107 0 164 20q76 23 135 111q45 70 90 70q66 0 66 -66
q0 -129 -41 -229q-22 -74 -139 -74h-771z" />
    <glyph glyph-name="braceleft" unicode="{" horiz-adv-x="848" 
d="M242 381q0 135 -54 205q-56 67 -151 94q67 5 131 61q51 42 62.5 93.5t11.5 144.5v446q0 230 73 312q68 64 164.5 79t270.5 15q-144 -68 -144 -307v-475q0 -163 -45.5 -251.5t-179.5 -117.5q131 -34 178 -115t47 -233v-512q0 -125 33.5 -195.5t110.5 -111.5
q-165 0 -244.5 10.5t-161.5 58.5q-65 46 -83.5 113t-18.5 178v508z" />
    <glyph glyph-name="bar" unicode="|" horiz-adv-x="1651" 
d="M741 1892h172v-1892h-172v1892z" />
    <glyph glyph-name="braceright" unicode="}" horiz-adv-x="848" 
d="M242 332q0 153 45.5 233.5t175.5 114.5q-134 29 -177.5 117t-43.5 252v475q0 239 -144 307q175 0 270.5 -15t159.5 -79q78 -82 78 -312v-446q0 -93 12.5 -145t61.5 -93q64 -56 131 -61q-96 -27 -152 -94q-53 -70 -53 -205v-508q0 -215 -102 -291q-80 -48 -161.5 -58.5
t-244.5 -10.5q78 41 111 111.5t33 195.5v512z" />
    <glyph glyph-name="asciitilde" unicode="~" horiz-adv-x="1651" 
d="M1552 831q-114 -157 -196 -230t-217 -73q-104 0 -258 62l-136 49q-149 61 -217 61q-60 0 -104 -30.5t-69.5 -67t-75.5 -119.5l-185 123q94 150 191.5 235t238.5 85q73 0 155 -23.5t201 -70.5t164.5 -62.5t94.5 -15.5q71 0 120.5 51.5t108.5 144.5z" />
    <glyph glyph-name="DEL" unicode="&#xf71b;" 
d="M-1229 2048h1229v-2048h-1229v2048z" />
    <glyph glyph-name="f700;" unicode="&#xf700;" horiz-adv-x="1880" 
d="M258 659q0 64 68.5 116.5t163 83t165.5 30.5q92 -5 137 -105t81 -270t61 -207q27 -45 110 -45q93 0 140 45q38 38 68 140t30 208q0 175 -86 250q-43 38 -208 56l-371.5 42t-333.5 86.5t-127 188.5q2 92 64.5 175t176 136.5t258.5 57.5q166 0 370 -33t327 -33
q55 0 132.5 28.5t100.5 28.5q32 0 61 -77t29 -144q0 -123 -176 -123q-64 0 -135 13q-17 2 -235.5 53t-354.5 53q-222 0 -233 -131q0 -31 91 -47.5t291 -36.5t348.5 -45.5t239.5 -71.5q185 -92 185 -401q0 -210 -82 -401q-61 -140 -207 -215.5t-350 -75.5q-58 0 -90 4
q-179 12 -275 46.5t-135 149.5q-26 81 -50.5 173.5t-47.5 166.5q-9 29 -62.5 45.5t-95.5 31.5t-43 54z" />
    <glyph glyph-name="f701;" unicode="&#xf701;" 
d="M-1929 2257q146 49 512 49q401 0 483 -65q38 -28 66 -91t28 -118q0 -46 -16 -62q-11 -16 -37 -16q-19 0 -108.5 33.5t-196.5 57t-252 23.5q-173 0 -282 -24.5t-189.5 -59t-97.5 -34.5q-33 21 -33 90q0 71 34 137t89 80z" />
    <glyph glyph-name="f702;" unicode="&#xf702;" 
d="M-1352 2294v106q0 38 -13.5 58.5t-14.5 31.5q0 82 225 82q242 0 242 -78q0 -16 -14.5 -38.5t-14.5 -55.5v-266q0 -19 3.5 -48t6.5 -46t6 -27q4 -22 4 -31q0 -25 -20 -36q-17 0 -103.5 34.5t-210.5 59t-325 24.5q-144 0 -247 -22.5t-209.5 -59t-137.5 -36.5q-33 0 -49 16
q-25 18 -25 66q0 56 37.5 124t89.5 97q104 57 459 57q106 0 190.5 -4.5t120.5 -7.5z" />
    <glyph glyph-name="f703;" unicode="&#xf703;" 
d="M-1384 2290q-6 8 -15.5 30.5t-9.5 55.5q0 11 8 53q30 94 101 118.5t182 24.5q109 -6 167 -61t58 -144q0 -120 -90 -180l25 -35t33.5 -60t15.5 -69q0 -38 -29 -73q-4 -8 -20 -8q-7 0 -86 36t-211 63t-342 27q-152 -4 -256 -30t-201.5 -63.5t-124.5 -37.5q-28 0 -45 17
q-21 15 -21 61q0 53 39 120.5t92 96.5q113 66 484 66q236 0 246 -8z" />
    <glyph glyph-name="f704;" unicode="&#xf704;" 
d="M-1761 2298v110q0 39 -13.5 59t-15.5 32q0 77 193 77q200 0 200 -73q0 -16 -14 -39t-14 -56v-110l188 -4v110q0 39 -14 59t-15 31q0 78 193 78q201 0 201 -73q0 -17 -14.5 -39.5t-14.5 -55.5v-270q0 -19 3.5 -48t6.5 -46t6 -27q4 -22 4 -31q0 -25 -20 -36
q-26 0 -136.5 35t-253 61t-347.5 26q-186 -4 -304.5 -29t-214.5 -59t-120 -34q-29 0 -45 16q-21 15 -21 57q0 56 40.5 124.5t90.5 92.5q136 66 357 66q36 0 60.5 -1.5t33.5 -2.5z" />
    <glyph glyph-name="ellipsis;" unicode="&#x2026;" horiz-adv-x="2425" 
d="M446 0q-121 0 -189.5 66t-68.5 155q0 87 68 152t190 65q123 0 191 -65.5t68 -155.5q0 -86 -68.5 -151.5t-190.5 -65.5zM1249 0q-121 0 -189.5 66t-68.5 155q0 87 68 152t190 65q123 0 190.5 -65t67.5 -156q0 -87 -68 -152t-190 -65zM2052 0q-121 0 -189.5 66t-68.5 155
q0 87 68 152t190 65q123 0 190.5 -65t67.5 -156q0 -87 -68 -152t-190 -65z" />
    <glyph glyph-name="f705;" unicode="&#xf705;" 
d="M-1180 2589q108 0 154.5 -13t46.5 -69v-389q0 -56 -44.5 -71t-160.5 -15q-117 0 -161 13.5t-44 68.5v389q0 59 50 72.5t159 13.5z" />
    <glyph glyph-name="f706;" unicode="&#xf706;" 
d="M-1479 2142q8 -4 29 -10t49 -6q75 0 144 12q87 20 126 74t55.5 130t18.5 79q18 28 152 28q140 0 151 -32q0 -146 -124.5 -286.5t-362.5 -172.5q-115 -16 -279 -16q-368 0 -368 98q0 19 45 69t45 111q0 25 -14 35t-46.5 20.5t-49.5 22.5t-21 41q0 53 97.5 86t217.5 33
q102 0 160 -25q74 -35 74 -115q0 -54 -30.5 -105t-68.5 -71z" />
    <glyph glyph-name="f707;" unicode="&#xf707;" 
d="M-1708 2011q0 -30 -85 -64t-194 -34q-42 6 -72 78.5t-30 158.5q0 83 21 127q39 94 84.5 119t115.5 29q49 0 128.5 -61.5t88.5 -61.5q16 0 102.5 60.5t131.5 62.5q200 -5 200 -230q0 -81 -20 -114q113 20 160 114q24 52 37 181q6 57 110 57q107 0 119 -45
q0 -40 -23.5 -94.5t-33.5 -93.5q-57 -227 -328 -275q-66 -8 -119 -8q-221 0 -221 78q0 8 8 24q25 60 25 127q0 62 -33 78q-23 0 -65 -35t-54 -35q-1 0 -49.5 35t-73.5 35q-16 -20 -16 -110q4 -38 44 -56t42 -47z" />
    <glyph glyph-name="f708;" unicode="&#xf708;" 
d="M-1159 2023q0 -57 -51.5 -71.5t-165.5 -14.5q-105 0 -149 14.5t-44 67.5v127h-217q-49 0 -49 90q0 82 49 82h217v148q0 53 48.5 65.5t152.5 12.5q209 0 209 -74v-148h217q49 0 49 -81q0 -91 -49 -91h-217v-127z" />
    <glyph glyph-name="f709;" unicode="&#xf709;" 
d="M-1126 2232q1 -29 27.5 -37.5t62.5 -16t45 -28.5q8 -24 8 -36q0 -107 -234 -107q-327 0 -327 238q13 130 119 173t315 76q141 25 177 59.5t36 80.5q0 37 33 37q49 0 75.5 -40t26.5 -91q0 -20 -8 -46q-27 -71 -77 -111.5t-165 -64.5q-66 -12 -90 -30.5t-24 -55.5z" />
    <glyph glyph-name="f70a;" unicode="&#xf70a;" 
d="M-451 2580q108 0 154.5 -11.5t46.5 -61.5v-389q0 -56 -44.5 -71t-160.5 -15t-160 13.5t-44 68.5v389q0 52 49.5 64.5t158.5 12.5z" />
    <glyph glyph-name="f70b;" unicode="&#xf70b;" 
d="M-594 2142q0 -20 107 -20q145 0 229 37q76 36 111.5 75.5t50 83t18.5 49.5q17 29 144 29q151 0 163 -37q0 -73 -75 -158t-201 -150t-264 -81q-172 -16 -287 -16q-373 0 -373 86q2 16 46 67t44 113q0 25 -16.5 37t-42.5 20t-51.5 19.5t-28.5 30.5q0 56 105.5 93.5
t222.5 37.5q92 0 131 -25q65 -48 65 -123q0 -51 -28.5 -98t-69.5 -70z" />
    <glyph glyph-name="f70c;" unicode="&#xf70c;" 
d="M-807 2011q0 -32 -69.5 -65t-176.5 -33q-46 6 -78.5 79.5t-35.5 161.5q0 70 20 123q61 148 201 148q44 -1 75 -22.5t73.5 -61t56.5 -39.5q24 0 98.5 61.5t118.5 61.5q98 0 143 -59.5t45 -141.5q0 -94 -37 -143q64 10 103.5 33.5t76.5 80.5q18 31 27 61.5t14 60t9 50.5
q17 58 147 58q120 0 135 -37q0 -34 -13 -58.5t-41.5 -63t-43.5 -66.5q-117 -236 -369 -275q-74 -8 -118 -8q-168 0 -168 65q0 19 12 37q29 70 29 131q0 70 -37 86q-24 0 -71 -41t-64 -41q-10 0 -61 37t-79 37q-16 -20 -16 -114q4 -31 24.5 -43t43 -23t26.5 -37z" />
    <glyph glyph-name="f70d;" unicode="&#xf70d;" 
d="M-246 2023q0 -57 -51.5 -71.5t-165.5 -14.5q-104 0 -148 14.5t-44 67.5v127h-217q-50 0 -50 90q0 82 50 82h217v148q0 53 48.5 65.5t151.5 12.5q102 0 155.5 -12t53.5 -62v-148h217q49 0 49 -81q0 -91 -49 -91h-217v-127z" />
    <glyph glyph-name="f70e;" unicode="&#xf70e;" 
d="M-401 2175q2 -37 64 -48t70.5 -34.5t8.5 -36.5q0 -106 -234 -106q-132 0 -213 65.5t-81 179.5q13 87 70 133t124 63.5t207 45.5q213 43 213 131v17q0 28 33 28q48 0 75 -39.5t27 -91.5q0 -21 -8 -45q-26 -71 -78.5 -113t-163.5 -63q-66 -12 -90 -30.5t-24 -55.5z" />
    <glyph glyph-name="f70f;" unicode="&#xf70f;" horiz-adv-x="2912" 
d="M2036 -8q-340 0 -520.5 130t-180.5 378v565q0 117 -16 185t-87 113.5t-224 49.5q-101 0 -179.5 -24t-119.5 -59.5t-41 -67.5q0 -19 18 -32.5t65.5 -41t72 -50.5t24.5 -53q0 -35 -63 -90t-88 -84t-25 -96v-405q0 -49 26 -74.5t76 -47.5t74 -41t24 -63q-7 -59 -129 -122.5
t-280 -69.5q-201 0 -201 377v405q0 91 35 140t90 94t55 69t-69.5 61.5t-100 60t-30.5 71.5q0 129 241 270q206 119 533 119q311 0 491 -107q160 -98 199 -202t39 -260v-492q0 -178 48.5 -273.5t229.5 -95.5q169 0 211.5 88t42.5 281v655q0 45 -23.5 71.5t-70 53t-66 42.5
t-20.5 46q0 67 122 121.5t271 54.5q119 -11 158 -119.5t39 -285.5v-737q0 -502 -651 -508z" />
    <glyph glyph-name="quoteleft;" unicode="&#x2018;" horiz-adv-x="721" 
d="M418 1638q53 0 124.5 -43.5t71.5 -193.5q-12 -68 -76.5 -106t-148.5 -38q-51 0 -98 17q-145 61 -152 237q0 65 17 119q33 123 115.5 205.5t171 121t143.5 38.5q24 0 24 -13q-11 -18 -62.5 -64.5t-96.5 -127.5q-33 -65 -33 -152z" />
    <glyph glyph-name="quoteright;" unicode="&#x2019;" horiz-adv-x="721" 
d="M356 1614q-53 0 -124.5 43.5t-71.5 193.5q11 68 75.5 106t149.5 38q56 0 98 -17q145 -60 152 -237q0 -65 -17 -119q-33 -123 -115.5 -205.5t-171 -121t-143.5 -38.5q-24 0 -24 13q9 14 62 63t98 129q32 66 32 152z" />
    <glyph glyph-name="quotedblleft;" unicode="&#x201c;" horiz-adv-x="1487" 
d="M487 1638q54 0 125.5 -43.5t71.5 -193.5q-11 -67 -76.5 -105.5t-148.5 -38.5q-52 0 -99 17q-144 60 -151 237q0 64 16 119q34 123 116.5 206t171 121t142.5 38q25 0 25 -13q-8 -14 -62 -63.5t-98 -128.5q-33 -67 -33 -152zM1118 1638q53 0 125 -43.5t72 -193.5
q-11 -67 -76.5 -105.5t-148.5 -38.5q-52 0 -99 17q-144 60 -151 237q0 64 16 119q34 123 116.5 206t171 121t142.5 38q25 0 25 -13q-8 -14 -62 -63.5t-98 -128.5q-33 -65 -33 -152z" />
    <glyph glyph-name="quotedblright;" unicode="&#x201d;" horiz-adv-x="1487" 
d="M1020 1614q-53 0 -125 43.5t-72 193.5q13 69 76.5 106.5t149.5 37.5q55 0 98 -17q144 -60 151 -237q0 -64 -16 -119q-34 -123 -116.5 -206t-171 -121t-142.5 -38q-25 0 -25 13q9 14 62 63t98 129q33 66 33 152zM389 1614q-53 0 -124.5 43.5t-71.5 193.5q11 68 75 106
t150 38q55 0 98 -17q145 -61 152 -237q0 -65 -17 -119q-33 -123 -115.5 -205.5t-171 -121t-143.5 -38.5q-24 0 -24 13q8 13 61.5 62.5t97.5 129.5q33 66 33 152z" />
    <glyph glyph-name="bullet;" unicode="&#x2022;" horiz-adv-x="1569" 
d="M774 295q-234 0 -364.5 148.5t-130.5 351.5q0 126 56.5 240.5t169 184.5t269.5 70q236 0 368 -148t132 -347q0 -127 -57.5 -243t-171.5 -186.5t-271 -70.5z" />
    <glyph glyph-name="endash;" unicode="&#x2013;" horiz-adv-x="1982" 
d="M274 688v242h1471v-242h-1471z" />
    <glyph glyph-name="emdash;" unicode="&#x2014;" horiz-adv-x="2789" 
d="M295 688v242h2290v-242h-2290z" />
    <glyph glyph-name="f710;" unicode="&#xf710;" 
d="M-1229 2322q35 -69 299 -69q133 0 261.5 17.5t193.5 47.5q99 47 208 128t144 81q29 -14 29 -155q0 -91 -21 -123q-25 -39 -165.5 -94.5t-369 -95.5t-497.5 -40q-110 2 -242.5 37.5t-225.5 103.5t-93 158q0 17 8 49q21 78 137 125.5t232 47.5q85 0 114 -29q21 -21 21 -45
q0 -20 -16.5 -63.5t-16.5 -80.5z" />
    <glyph glyph-name="f711;" unicode="&#xf711;" 
d="M-1298 1872q-157 0 -244.5 87.5t-87.5 207.5q0 118 87.5 206.5t244.5 88.5q153 0 238 -87.5t85 -207.5q0 -122 -85 -208.5t-238 -86.5zM-1298 2290q-59 0 -91 -36.5t-32 -86.5q0 -51 32 -87t91 -36q58 0 90 36t32 87q0 50 -31.5 86.5t-90.5 36.5z" />
    <glyph glyph-name="f712;" unicode="&#xf712;" 
d="M-1028 2367q92 0 142 -54t50 -130q0 -73 -47 -131t-137 -74q-66 -8 -94 -8q-105 0 -167.5 28.5t-147 84t-127.5 55.5q-37 0 -138.5 -65.5t-143 -88t-108.5 -22.5q-49 0 -98 25q-42 21 -70 104.5t-28 185.5q0 153 57 238q69 104 154.5 140t210.5 36q44 0 183 -8t247 -8
q141 4 175.5 37.5t40.5 86t50 52.5q80 -6 132 -58t52 -127q-8 -103 -86 -137.5t-213 -38.5q-88 0 -226.5 8.5t-207.5 8.5q-108 0 -160 -29q-69 -37 -69 -164q0 -86 37 -86q17 0 89.5 65.5t127.5 65.5q25 0 65 -20l143 -85l98.5 -58t34.5 -20.5l7 -4.5q0 191 172 196z" />
    <glyph glyph-name="f713;" unicode="&#xf713;" 
d="M-1143 3228q108 0 154.5 -11.5t46.5 -62.5v-389q0 -56 -44.5 -71t-160.5 -15q-117 0 -161 13.5t-44 68.5v389q0 53 50 65.5t159 12.5z" />
    <glyph glyph-name="f714;" unicode="&#xf714;" 
d="M-1020 2863q0 -20 107 -20q143 0 229 36q76 36 111 75t49.5 83t19.5 51q17 29 144 29q151 0 163 -37q0 -73 -75 -158t-201 -150t-264 -81q-172 -16 -287 -16q-373 0 -373 86q2 16 46 67t44 113q0 25 -16.5 37t-42.5 20t-51.5 19.5t-28.5 29.5q0 58 105.5 94.5t222.5 36.5
q93 0 131 -24q65 -48 65 -123q0 -52 -28.5 -98.5t-69.5 -69.5z" />
    <glyph glyph-name="f715;" unicode="&#xf715;" 
d="M-1085 2781q0 -32 -70.5 -65t-175.5 -33q-47 6 -79.5 79.5t-35.5 162.5q0 70 21 122q61 148 200 148q44 -1 77 -24t73 -61t55 -38q24 0 98.5 61.5t118.5 61.5q98 0 143.5 -59t45.5 -142q0 -91 -37 -143q117 18 180 115q23 38 49 172q17 57 148 57q120 0 135 -37
q0 -45 -45 -108.5t-54 -79.5q-117 -236 -368 -275q-74 -8 -119 -8q-168 0 -168 66q0 18 12 36q29 65 29 131q0 71 -37 86q-25 0 -71.5 -40.5t-63.5 -40.5q-12 0 -61.5 36.5t-77.5 36.5q-17 -20 -17 -114q4 -31 24.5 -42.5t43.5 -23t27 -37.5z" />
    <glyph glyph-name="f716;" unicode="&#xf716;" 
d="M-934 2761q0 -57 -51.5 -71.5t-165.5 -14.5q-104 0 -148 14.5t-44 67.5v127h-218q-49 0 -49 90q0 82 49 82h218v147q0 53 48.5 65.5t151.5 12.5q102 0 155.5 -12t53.5 -62v-147h217q49 0 49 -82q0 -90 -49 -90h-217v-127z" />
    <glyph glyph-name="f717;" unicode="&#xf717;" 
d="M-1061 2642q2 -37 64 -48t70.5 -34.5t8.5 -36.5q0 -106 -233 -106q-133 0 -214 65.5t-81 179.5q20 122 111 162.5t291 79.5q213 44 213 131v17q0 28 32 28q49 0 76 -39.5t27 -91.5q0 -23 -9 -45q-27 -72 -78.5 -113.5t-162.5 -62.5q-115 -20 -115 -86z" />
    <glyph glyph-name="0e00;" unicode="&#xe00;" horiz-adv-x="369" 
 />
    <glyph glyph-name="afii59681" unicode="&#xe01;" horiz-adv-x="1925" 
d="M1720 287q0 -47 10.5 -67t34 -35.5t36.5 -34t14 -64.5q0 -53 -41 -69.5t-127 -16.5h-127q-22 0 -69 -2t-67 -2q-79 0 -119 18.5t-40 71.5q0 37 10.5 53t32 35.5t32.5 44t11 76.5v770q0 117 -16 185t-86.5 113.5t-225.5 49.5q-101 0 -179.5 -24t-119.5 -59.5t-41 -67.5
q0 -19 18 -32.5t65.5 -41t72 -50.5t24.5 -53q0 -35 -63 -90t-88 -84t-25 -96v-528q0 -49 11 -69.5t34 -35.5t35.5 -33t13.5 -63q0 -53 -40.5 -69.5t-127.5 -16.5h-127q-23 0 -69 -2t-66 -2q-79 0 -119 18.5t-40 71.5q0 37 10.5 53t32 35.5t32.5 44t11 76.5v479q0 91 35 140
t90 94t55 69t-71 62.5t-100.5 60t-29.5 70.5q0 129 242 270q206 119 532 119q310 0 492 -107q158 -97 197.5 -201.5t39.5 -260.5v-803z" />
    <glyph glyph-name="afii59682;" unicode="&#xe02;" horiz-adv-x="1864" 
d="M1651 463q0 -471 -680 -471q-660 0 -660 463v290q0 136 78 213q53 53 143.5 112.5t127 101t36.5 114.5q-3 62 -44.5 96.5t-98.5 34.5q-50 0 -88.5 -27.5t-46.5 -78.5q-19 -94 -51.5 -132t-116.5 -44q-57 0 -96 47.5t-39 120.5q0 57 28 114q101 213 443 225
q144 0 248 -44.5t157 -111.5t58 -138q0 -105 -48.5 -174.5t-181.5 -206.5q-58 -64 -78 -101.5t-20 -124.5v-237q0 -151 60.5 -221t193.5 -70q153 0 209.5 71.5t56.5 219.5v839q0 52 -11 77.5t-34 46.5t-32 35.5t-9 49.5q5 90 160 90q20 0 66 -2t69 -2h127q83 0 124 -15.5
t44 -70.5q0 -41 -11 -58.5t-35.5 -38t-36 -40t-11.5 -63.5v-889z" />
    <glyph glyph-name="afii59683;" unicode="&#xe03;" horiz-adv-x="2011" 
d="M430 688q0 159 70 242q57 69 93.5 94.5t106.5 66t111 85.5q25 25 25 69q-3 33 -19 61.5t-35 28.5q-9 0 -43.5 -38.5t-65.5 -63.5t-71 -25q-41 0 -102.5 67.5t-65.5 67.5q-53 -14 -53 -69q0 -14 4 -46t4 -48q0 -61 -65 -90q-25 -13 -58 -13q-75 0 -127.5 74t-52.5 205
q20 143 112 214.5t179 71.5q41 0 67.5 -17t68 -53.5t65 -50.5t57.5 -14q40 0 67.5 14.5t76.5 50.5t84.5 53t86.5 17q55 -1 106.5 -50.5t83 -130t31.5 -171.5q-5 -83 -40 -137t-112 -122t-110 -105q-46 -51 -57.5 -83t-11.5 -118v-221q0 -152 60 -221.5t194 -69.5
q153 0 209.5 71.5t56.5 219.5v839q0 52 -11 77.5t-34 46.5t-32 35.5t-9 49.5q5 90 160 90q20 0 66 -2t69 -2h127q83 0 124 -15.5t44 -70.5q0 -41 -11.5 -58.5t-36 -38t-36 -40t-11.5 -63.5v-889q0 -471 -679 -471q-301 0 -480.5 112t-179.5 351v233z" />
    <glyph glyph-name="afii59684;" unicode="&#xe04;" horiz-adv-x="2081" 
d="M1855 287q0 -47 10.5 -67t34 -35.5t36.5 -34t14 -64.5q0 -53 -41 -69.5t-127 -16.5h-127q-23 0 -69 -2t-66 -2q-160 0 -160 90q0 37 10.5 53t32 35.5t32.5 44t11 76.5v741q0 377 -381 377q-232 0 -332.5 -106.5t-122.5 -294.5q-4 -29 -4 -86q0 -147 50 -345
q43 -174 48 -174q1 0 1 3q0 26 17 139.5t48 245.5q85 367 225 397q108 0 205 -55t103 -117q0 -29 -16.5 -43t-52 -28t-62 -35t-42.5 -62q-46 -125 -94.5 -365t-77.5 -335q-28 -96 -85 -124t-177 -28q-12 0 -47 -2t-55 -2q-186 0 -270 225q-131 361 -131 672q0 277 118 450
q115 164 309.5 240t419.5 76q177 0 331 -40t231 -99q165 -125 209 -248.5t44 -251.5v-733z" />
    <glyph glyph-name="afii59685;" unicode="&#xe05;" horiz-adv-x="2081" 
d="M1004 156q-32 -97 -91.5 -126.5t-162.5 -29.5h-119q-115 0 -166 15.5t-92 70.5q-58 81 -113 331.5t-55 491.5q0 279 78 439q77 163 209.5 235t232.5 72q65 -2 191.5 -73t127.5 -71q2 0 148 72t197 72q226 0 348 -139q131 -164 131 -431v-798q0 -47 10.5 -67t34 -35.5
t36 -34.5t13.5 -64q0 -53 -41 -69.5t-127 -16.5h-127q-23 0 -69 -2t-66 -2q-160 0 -160 90q0 37 10.5 53t32 35.5t32.5 44t11 76.5v668q0 366 -184 389q-19 0 -116 -61.5t-114 -61.5q-18 2 -104 62.5t-109 60.5q-174 -27 -208 -357q-5 -28 -5 -90q0 -154 41 -386
q37 -210 41 -210v2q0 65 82 402q87 369 226 397q107 0 204 -55t103 -117q0 -29 -16.5 -43t-51.5 -28t-61.5 -35t-42.5 -62q-36 -97 -52.5 -177t-41.5 -227t-45 -210z" />
    <glyph glyph-name="afii59686;" unicode="&#xe06;" horiz-adv-x="2163" 
d="M836 1163q32 33 32 78q0 36 -16.5 65t-36.5 29q-8 0 -71.5 -63.5t-108.5 -63.5q-36 0 -98.5 65.5t-77.5 65.5q-58 -21 -58 -69q0 -17 8.5 -48.5t8.5 -50.5q0 -56 -62 -81q-23 -13 -57 -13q-75 0 -127.5 74t-52.5 205q19 143 111 214.5t180 71.5q39 0 66.5 -17t69 -53.5
t65 -50.5t57.5 -14q40 0 68.5 15.5t74.5 50t83 52t89 17.5q85 -3 149 -106t64 -246q-6 -85 -38 -138t-110 -125t-98 -93q-65 -70 -65 -234v-90q0 -176 105 -270t247 -94q307 0 307 381v716q0 52 -11 77.5t-34 46.5t-32 35.5t-9 49.5q5 90 160 90q20 0 66 -2t69 -2h127
q83 0 124 -15.5t44 -70.5q0 -41 -11 -58.5t-35.5 -38t-36 -40t-11.5 -63.5v-774q0 -301 -194.5 -443.5t-530.5 -142.5q-127 5 -214 37t-132 68t-52 42q-16 -40 -83 -99.5t-207 -59.5q-116 0 -193.5 80.5t-77.5 197.5q0 64 21 115q31 77 82.5 110.5t101.5 40.5q34 5 44 5
q5 0 5 -1q-8 6 -20.5 23t-16.5 43q-8 61 -8 111v106q0 77 55.5 132t162.5 122t139 98z" />
    <glyph glyph-name="afii59687;" unicode="&#xe07;" horiz-adv-x="1692" 
d="M463 999q27 -134 119.5 -357t150.5 -306q61 -90 148 -90q54 0 102 38t66 97q65 189 65 426q0 220 -60 370t-169 150q-49 0 -67 -9t-32 -27t-36 -28t-74 -10q-82 0 -82 99q0 95 82.5 187t224.5 103q321 0 462 -177t157 -539q0 -613 -217 -807q-72 -63 -213 -99t-291 -36
q-275 0 -348 98q-49 64 -163 339.5t-169 450.5q-13 41 -13 62q0 73 95 156q100 94 164 94q50 0 65 -44t33 -141z" />
    <glyph glyph-name="afii59688;" unicode="&#xe08;" horiz-adv-x="1835" 
d="M201 844q0 111 127.5 190.5t236.5 79.5q204 0 250 -405q23 -212 34 -286t44 -131t98 -63q115 0 173 161t61 429q0 210 -17 325.5t-90.5 191t-236.5 81.5q-217 0 -322.5 -50t-195.5 -129t-150 -79q-86 6 -86 135q0 68 37 123q81 118 273.5 180t451.5 62q256 -3 410 -65.5
t223.5 -164.5t87.5 -207.5t24 -263.5q0 -15 2 -48t2 -50q0 -375 -145 -621t-489 -251q-253 0 -367.5 72.5t-144.5 250.5q-8 47 -25.5 184.5t-34 193t-51.5 81.5q-25 19 -99 32t-81 42z" />
    <glyph glyph-name="afii59689;" unicode="&#xe09;" horiz-adv-x="1917" 
d="M864 1413q-190 0 -293.5 -45t-190 -114t-134.5 -70q-70 0 -70 123q0 83 33 127q69 105 252.5 161t435.5 56q391 -3 601 -139.5t210 -413.5v-488q0 -49 -20 -114q-10 -26 -21 -39t-16 -15q30 -13 74 -62.5t44 -150.5q0 -118 -78.5 -181.5t-207.5 -63.5
q-143 17 -189.5 93.5t-48.5 123.5q-58 -92 -198 -154.5t-293 -62.5q-63 0 -119 12q-127 23 -219 125.5t-92 320.5l20 271q0 40 -23 63t-66.5 45t-61 37.5t-17.5 46.5q5 49 67 89t150 61.5t168 21.5q32 0 74 -8q65 -14 85.5 -68t24.5 -153v-98l-16 -279q0 -91 71.5 -133.5
t170.5 -42.5q147 9 237 113t90 247v369q0 191 -91 290t-343 99z" />
    <glyph glyph-name="afii59690;" unicode="&#xe0a;" horiz-adv-x="1847" 
d="M1212 1012q0 123 -20 164q-18 39 -57 59t-50.5 31.5t-11.5 68.5q2 58 60.5 92.5t78.5 75.5q21 49 24 111t13 74q47 45 221 45q99 0 169 -16.5t73 -45.5q0 -138 -143 -221q-45 -26 -91.5 -44t-59.5 -27.5t-13 -35.5q0 -21 49.5 -44.5t74 -38.5t52.5 -64q41 -82 41 -213
v-520q0 -471 -680 -471q-659 0 -659 463v290q0 136 77 213q49 49 141 109.5t129.5 102.5t37.5 116q-3 62 -45 96.5t-99 34.5q-50 0 -88.5 -27.5t-46.5 -78.5q-19 -95 -51 -132.5t-117 -43.5q-57 0 -96 47.5t-39 120.5q0 57 29 114q99 213 442 225q210 0 329.5 -91.5
t129.5 -202.5q0 -110 -46 -176t-179 -205q-58 -62 -78.5 -100.5t-20.5 -125.5v-237q0 -149 59.5 -212.5t194.5 -66.5q154 0 210 66.5t56 212.5v508z" />
    <glyph glyph-name="afii59691;" unicode="&#xe0b;" horiz-adv-x="1991" 
d="M1360 1012q0 123 -21 164q-18 39 -57.5 59.5t-50 32t-10.5 67.5q2 58 60.5 92.5t78.5 75.5q21 49 24 111t13 74q45 45 221 45q234 0 242 -62q0 -138 -144 -221q-45 -26 -91.5 -44t-59.5 -28t-13 -35q0 -21 49.5 -44.5t74.5 -39t53 -63.5q40 -82 40 -213v-520
q0 -471 -679 -471q-301 0 -480.5 112t-179.5 351v233q0 179 53 242q58 70 97.5 97.5t107.5 67t107 81.5q24 24 24 69q-3 35 -18.5 62.5t-34.5 27.5q-8 0 -71.5 -63.5t-108.5 -63.5q-36 0 -98.5 65.5t-77.5 65.5q-58 -21 -58 -69q0 -17 8.5 -48.5t8.5 -50.5q0 -56 -62 -81
q-23 -13 -57 -13q-75 0 -127.5 74t-52.5 205q19 143 111 214.5t179 71.5q40 0 67.5 -17t65.5 -52t64.5 -50.5t60.5 -15.5q40 0 67.5 14.5t76.5 50.5t84.5 53t87.5 17q83 -3 148 -107.5t65 -244.5q-5 -83 -37.5 -136.5t-108.5 -123t-108 -104.5q-39 -47 -46 -77t-7 -124v-221
q0 -152 60 -221.5t194 -69.5q153 0 209.5 71.5t56.5 219.5v508z" />
    <glyph glyph-name="afii59692;" unicode="&#xe0c;" horiz-adv-x="2908" 
d="M1745 598q0 -150 94 -255t250 -105q120 14 154 98.5t34 261.5v655q0 45 -23.5 71.5t-70 53t-66 42.5t-20.5 46q0 67 122 121.5t271 54.5q119 -11 158 -119.5t39 -285.5v-639q0 -267 -105.5 -419t-410.5 -187q-29 -4 -86 -4q-183 0 -288.5 68.5t-125.5 107.5
q-11 -46 -88.5 -113t-234.5 -67q-109 14 -163.5 84.5t-54.5 160.5q0 81 41 144q35 53 76.5 75.5t77 26t35.5 4.5q-9 0 -17 49q-8 74 -8 78v459q0 117 -16 185t-87 113.5t-224 49.5q-101 0 -179.5 -24t-119.5 -59.5t-41 -67.5q0 -19 18 -32.5t65.5 -41t72 -50.5t24.5 -53
q0 -35 -63 -90t-88 -84t-25 -96v-405q0 -49 26 -74.5t76 -47.5t74 -41t24 -63q-7 -59 -129 -122.5t-280 -69.5q-201 0 -201 377v405q0 91 35 140t90 94t55 69t-69.5 61.5t-100 60t-30.5 71.5q0 129 241 270q206 119 533 119q311 0 491 -107q160 -98 199 -202t39 -260v-492z
" />
    <glyph glyph-name="afii59693;" unicode="&#xe0d;" horiz-adv-x="2912" 
d="M1769 -336q7 -82 213 -82q115 0 185 29q65 31 85 61t24.5 72.5t13.5 58.5q23 41 184 41q144 0 176 -24q21 -17 21 -58q0 -73 -70.5 -162.5t-220 -156t-365.5 -70.5q-309 0 -494.5 86.5t-185.5 216.5q0 112 144 156q72 21 139 21q84 0 148.5 -21.5t72.5 -56.5
q0 -30 -35 -59t-35 -52zM2036 -8q-340 0 -520.5 130t-180.5 378v565q0 117 -16 185t-87 113.5t-224 49.5q-101 0 -179.5 -24t-119.5 -59.5t-41 -67.5q0 -19 18 -32.5t65.5 -41t72 -50.5t24.5 -53q0 -35 -63 -90t-88 -84t-25 -96v-405q0 -49 26 -74.5t76 -47.5t74 -41t24 -63
q-7 -59 -129 -122.5t-280 -69.5q-201 0 -201 377v405q0 91 35 140t90 94t55 69t-69.5 61.5t-100 60t-30.5 71.5q0 129 241 270q206 119 533 119q311 0 491 -107q160 -98 199 -202t39 -260v-492q0 -178 48.5 -273.5t229.5 -95.5q169 0 211.5 88t42.5 281v655q0 45 -23.5 71.5
t-70 53t-66 42.5t-20.5 46q0 67 122 121.5t271 54.5q119 -11 158 -119.5t39 -285.5v-737q0 -502 -651 -508z" />
    <glyph glyph-name="afii59694;" unicode="&#xe0e;" horiz-adv-x="2028" 
d="M1823 -279q0 -137 -104 -259t-330 -134q-69 0 -125 23.5t-122 70t-106 69t-86 22.5q-44 0 -87 -23t-101.5 -66.5t-109 -71t-107.5 -32.5q-137 0 -239 73t-105 181q0 94 50.5 153.5t129.5 59.5q32 0 48 -17t40.5 -58t53 -63.5t79.5 -25.5q41 0 72 16t87.5 54.5t95.5 57.5
t85 20q46 0 85.5 -16.5t77 -40t82 -47t75.5 -23.5q27 0 53 12q98 50 98 213v1196q0 117 -16 185t-86.5 113.5t-225.5 49.5q-101 0 -179.5 -24t-119.5 -59.5t-41 -67.5q0 -19 18 -32.5t66.5 -41.5t72.5 -50.5t24 -52.5q0 -35 -63 -90t-88 -84t-25 -96v-446q0 -199 -41 -286.5
t-160 -90.5q-105 0 -198.5 31.5t-150 76.5t-61.5 84q0 42 24 62t74 41.5t76.5 46.5t26.5 76v364q0 91 35 140t90 94t55 69t-71 62.5t-100.5 60t-29.5 70.5q0 128 242 270q206 119 533 119q309 0 491 -107q160 -98 199 -202t39 -260v-1369z" />
    <glyph glyph-name="afii59695;" unicode="&#xe0f;" horiz-adv-x="2032" 
d="M1405 -655q-39 1 -70.5 18t-67.5 46t-60.5 44t-55.5 15q-27 0 -98 -70t-115 -70q-33 0 -60 16.5t-64 51t-62 53.5t-47 19q-24 0 -93.5 -48l-97 -66t-76.5 -26q-95 0 -178.5 72t-83.5 178q15 80 68 142.5t129 62.5q28 -4 36.5 -22.5t17 -58t22.5 -59.5t51 -20q25 0 109 77
t120 79q28 0 50 -17t54 -51t54 -52t47 -19q38 0 99.5 68.5t96.5 70.5q27 0 93.5 -57.5t128.5 -57.5q37 15 45 45t8 111v1245q0 117 -16 185t-86.5 113.5t-225.5 49.5q-101 0 -179.5 -24t-119.5 -59.5t-41 -67.5q0 -19 18 -32.5t66.5 -41.5t72.5 -50.5t24 -52.5
q0 -34 -61.5 -87.5t-88.5 -85t-27 -97.5v-446q0 -199 -40.5 -286.5t-159.5 -90.5q-107 0 -200 31.5t-149 76.5t-61 84q0 42 24 62t74 41.5t76.5 46.5t26.5 76v364q0 91 35 140t90 94t55 69t-71 62.5t-100.5 60t-29.5 70.5q0 128 242 270q206 119 532 119q310 0 492 -107
q160 -98 199 -202t39 -260v-1369q0 -81 -44.5 -168.5t-137.5 -147.5t-228 -60z" />
    <glyph glyph-name="afii59696;" unicode="&#xe10;" horiz-adv-x="1860" 
d="M233 659q0 64 68.5 116.5t163.5 83t166 30.5q92 -5 137 -105t81 -270t60 -207q29 -45 111 -45q92 0 139 45q38 38 68 140t30 208q0 176 -86 250q-43 38 -208 56l-371.5 42t-333.5 86.5t-127 188.5q2 92 64.5 174.5t177 136.5t258.5 58q165 0 370 -33t326 -33
q54 0 131.5 28.5t102.5 28.5q32 0 61 -77t29 -144q0 -123 -176 -123q-64 0 -136 13q-53 8 -175 38t-220.5 48.5t-193.5 19.5q-223 0 -234 -131q0 -31 91 -47.5t292 -36.5t349 -45.5t239 -71.5q184 -91 184 -401q0 -210 -82 -401q-62 -141 -207.5 -216t-349.5 -75
q-57 0 -90 4q-178 12 -274.5 46.5t-135.5 149.5q-12 39 -43.5 152.5t-54.5 187.5q-9 30 -62 46t-94.5 31t-44.5 54zM1343 -664q-67 3 -113 25t-114 64.5t-96 42.5q-29 0 -93 -70t-108 -70q-33 0 -58.5 17.5t-57.5 52.5t-52.5 52.5t-44.5 17.5t-104 -70t-142 -70
q-97 0 -165 87t-68 216q38 176 168 176q31 -8 54.5 -70.5t38 -86t67.5 -23.5q24 2 83 79t97 77q35 0 89.5 -69.5t90.5 -69.5q25 0 46 16.5t50.5 50t51.5 51.5t45 21q27 0 93 -74t99 -74q27 0 49 33q13 26 13 49q0 39 -25 70q-6 7 -37 13.5t-33 27.5q0 47 80.5 79t173.5 32
q74 0 107 -21q91 -58 98 -217q0 -155 -65 -260t-218 -105z" />
    <glyph glyph-name="afii59697;" unicode="&#xe11;" horiz-adv-x="2179" 
d="M1954 1090v-803q0 -47 10.5 -67t34 -35.5t36 -34.5t13.5 -64q0 -53 -41 -69.5t-127 -16.5h-127q-23 0 -69 -2t-66 -2q-160 0 -160 90q0 37 10.5 53t32 35.5t32.5 44t11 76.5v770q0 229 -160 229q-83 0 -158 -57t-173 -176q-106 -130 -139 -183t-33 -141v-450
q0 -49 11 -69.5t34 -35.5t35.5 -33t13.5 -63q0 -53 -41 -69.5t-127 -16.5h-127q-23 0 -69 -2t-66 -2q-160 0 -160 90q0 37 10.5 53t32 35.5t32.5 44t11 76.5v377q0 59 12 104.5t32.5 80.5t54.5 74l53 59.5l90.5 93t99 110t27.5 68.5q0 24 -17 41q-18 24 -41 24
q-26 0 -91.5 -63.5t-108.5 -67.5q-41 0 -103 49t-86 49q-43 -9 -49.5 -45.5t-13.5 -84t-43 -66.5q-28 -13 -49 -13q-57 0 -107.5 53.5t-56.5 118.5q0 149 90.5 265.5t171.5 119.5q54 0 141 -64t113 -67q35 0 133 65.5t133 65.5q134 -5 186 -95t52 -138q0 7 68.5 68.5
t165.5 113.5t200 56q272 0 349 -161t77 -396z" />
    <glyph glyph-name="afii59698;" unicode="&#xe12;" horiz-adv-x="3027" 
d="M1860 598q0 -150 94 -255t250 -105q120 14 154 98.5t34 261.5v655q0 45 -23.5 71.5t-70 53t-66 42.5t-20.5 46q0 67 121 121.5t272 54.5q119 -11 158 -119.5t39 -285.5v-639q0 -267 -105.5 -419t-410.5 -187q-29 -4 -86 -4q-183 0 -288.5 68.5t-125.5 107.5
q-3 -17 -36 -61t-105 -81.5t-183 -37.5q-109 14 -163 84.5t-54 160.5q0 81 41 144q35 53 76.5 75.5t77 26t35.5 4.5q-11 0 -17 49q-8 74 -8 78v357q0 366 -184 389q-19 0 -116 -61.5t-114 -61.5q-17 2 -103 62.5t-110 60.5q-174 -27 -209 -357q-4 -37 -4 -114
q0 -162 33 -328t70 -229q2 0 118 233q64 128 81.5 171.5t17.5 94.5q0 28 -17 45t-48.5 33.5t-46.5 27.5t-15 29q0 59 98 97.5t225 38.5q160 -29 160 -205q0 -65 -24 -152q-100 -293 -267 -581q-53 -98 -108.5 -129t-141.5 -31q-16 0 -57 2t-65 2q-115 0 -166 15.5t-92 70.5
q-58 81 -113 331.5t-55 491.5q0 278 77 439q78 163 210.5 235t232.5 72q66 -2 192.5 -73l126.5 -71q2 0 147 72t197 72q227 0 349 -139q131 -164 131 -431v-487z" />
    <glyph glyph-name="afii59699;" unicode="&#xe13;" horiz-adv-x="2896" 
d="M2662 688q0 -61 -12 -106q-7 -34 -22 -56t-23 -30v0q4 0 36 -7q35 -9 76.5 -35t71.5 -73q41 -64 41 -148q0 -97 -62.5 -171.5t-162.5 -77.5q-168 0 -235 64t-80 116q-19 -37 -140.5 -104.5t-334.5 -67.5q-504 36 -504 606v467q0 117 -16 185t-86.5 113.5t-225.5 49.5
q-101 0 -179.5 -24t-119.5 -59.5t-41 -67.5q0 -19 18 -32.5t65.5 -41t72 -50.5t24.5 -53q0 -35 -63 -90t-88 -84t-25 -96v-405q0 -49 26 -74.5t76 -47t74.5 -41t24.5 -63.5q-7 -59 -128.5 -122.5t-281.5 -69.5q-200 0 -200 377v405q0 91 35 140t90 94t55 69t-71 62.5
t-100.5 60t-29.5 70.5q0 129 242 270q206 119 532 119q310 0 492 -107q158 -97 197.5 -201.5t39.5 -260.5v-492q0 -177 34.5 -261.5t154.5 -98.5q158 0 251 105t93 255v655q0 45 -23.5 71.5t-70 53t-66 42.5t-20.5 46q0 67 121 121.5t272 54.5q119 -11 157.5 -119.5
t38.5 -285.5v-549z" />
    <glyph glyph-name="afii59700;" unicode="&#xe14;" horiz-adv-x="2077" 
d="M1032 1413q-374 -5 -418 -418q-4 -37 -4 -118q0 -164 32 -330.5t71 -222.5q12 17 45 78.5t69 154.5q95 236 95 332q0 28 -17 45t-48.5 33.5t-46.5 27.5t-15 29q0 59 97.5 97t225.5 38q154 -26 160 -205q0 -67 -25 -151q-109 -408 -258 -647q-60 -98 -115.5 -127
t-146.5 -29h-110q-115 0 -166 15.5t-92 70.5q-59 82 -118 319t-59 463q0 264 86 430q105 200 283 275t447 82q498 0 708 -197q95 -85 121.5 -190t26.5 -256v-725q0 -47 10.5 -67t34 -35.5t36 -34.5t13.5 -64q0 -53 -41 -69.5t-127 -16.5h-127q-23 0 -69 -2t-66 -2
q-160 0 -160 90q0 37 10.5 53t32 35.5t32.5 44t11 76.5v668q0 206 -87 328t-331 122z" />
    <glyph glyph-name="afii59701;" unicode="&#xe15;" horiz-adv-x="2068" 
d="M1860 287q0 -47 10.5 -67t34 -35.5t36 -34.5t13.5 -64q0 -53 -41 -69.5t-127 -16.5h-127q-23 0 -69 -2t-66 -2q-160 0 -160 90q0 37 10.5 53t32 35.5t32.5 44t11 76.5v668q0 366 -184 389q-19 0 -116 -61.5t-114 -61.5q-17 2 -103 62.5t-110 60.5q-174 -27 -209 -357
q-4 -37 -4 -114q0 -162 33 -328t70 -229q2 0 118 233q67 134 83 173t16 93q0 28 -17 45t-48.5 33.5t-46.5 27.5t-15 29q0 59 98 97.5t225 38.5q160 -29 160 -205q0 -65 -24 -152q-93 -297 -267 -581q-60 -98 -115.5 -127t-146.5 -29h-110q-115 0 -166 15.5t-92 70.5
q-58 81 -113 331.5t-55 491.5q0 278 77 439q78 163 210.5 235t232.5 72q66 -2 192.5 -73l126.5 -71q2 0 147 72t197 72q227 0 349 -139q131 -164 131 -431v-798z" />
    <glyph glyph-name="afii59702;" unicode="&#xe16;" horiz-adv-x="1982" 
d="M262 774q0 91 35 140t90 94t55 69t-69.5 61.5t-100 60t-30.5 71.5q0 129 241 270q206 119 533 119q311 0 491 -107q160 -98 199 -202t39 -260v-803q0 -47 10.5 -67t34 -35.5t36 -34.5t13.5 -64q0 -53 -41 -69.5t-127 -16.5h-127q-23 0 -69 -2t-66 -2q-160 0 -160 90
q0 37 10.5 53t32 35.5t32.5 44t11 76.5v770q0 117 -16 185t-87 113.5t-224 49.5q-101 0 -179.5 -24t-119.5 -59.5t-41 -67.5q0 -19 18 -32.5t65.5 -41t72 -50.5t24.5 -53q0 -35 -63 -90t-88 -84t-25 -96v-405q0 -49 26 -74.5t76 -47.5t74 -41t24 -63q-7 -59 -129 -122.5
t-280 -69.5q-201 0 -201 377v405z" />
    <glyph glyph-name="afii59703;" unicode="&#xe17;" horiz-adv-x="2068" 
d="M360 1253q0 41 -23 66t-69 51t-65 42.5t-19 49.5q0 74 130.5 127t303.5 53q156 -13 156 -327v-160l-37 -172q0 11 39 99t107.5 198.5t152.5 194.5q172 172 385 172q58 0 90 -5q332 -32 332 -552v-803q0 -47 10.5 -67t34 -35.5t36 -34.5t13.5 -64q0 -53 -40.5 -69.5
t-127.5 -16.5h-127q-23 0 -69 -2t-66 -2q-79 0 -119 18.5t-40 71.5q0 37 10.5 53t32 35.5t32.5 44t11 76.5v770q0 139 -28.5 204.5t-115.5 65.5q-176 -28 -385 -483q-135 -299 -135 -451v-114q0 -49 11 -69.5t34 -35.5t35.5 -33t13.5 -63q0 -53 -40.5 -69.5t-127.5 -16.5
h-127q-23 0 -69 -2t-66 -2q-160 0 -160 90q0 37 10.5 53t32 35.5t32.5 44t11 76.5v958z" />
    <glyph glyph-name="afii59704;" unicode="&#xe18;" horiz-adv-x="1888" 
d="M1229 332q34 31 58 116t24 183q0 196 -94 274q-46 39 -207.5 56l-364.5 39.5t-327.5 83.5t-124.5 186q3 142 142.5 252t356.5 116q166 0 355 -28.5t309 -28.5q55 0 132.5 28.5t100.5 28.5q32 0 61 -77t29 -144q0 -123 -176 -123q-64 0 -135 13q-58 9 -175 37.5t-200.5 44
t-181.5 16.5q-222 0 -233 -131q0 -31 86.5 -46.5t281 -34t337.5 -43t233 -69.5q104 -51 152 -177.5t48 -289.5q0 -191 -49 -319q-48 -137 -224.5 -220t-471.5 -83q-247 4 -404.5 44.5t-279.5 184.5q-66 72 -66 295q0 139 33 229q24 64 123 98t205 34q111 0 123 -33
q0 -33 -7.5 -55t-23 -45.5t-19.5 -30.5q-24 -49 -24 -148q0 -170 65 -229q95 -82 262 -82q187 0 271 78z" />
    <glyph glyph-name="afii59705;" unicode="&#xe19;" horiz-adv-x="1991" 
d="M1753 709q0 -70 -20 -148q-12 -47 -41 -67t-45 -23q0 2 3 2q10 0 50 -16q53 -22 94 -84q45 -61 45 -152q0 -96 -61.5 -170t-167.5 -84q-256 0 -312 180l-67.5 -49.5t-167.5 -78.5t-252 -35q-275 18 -401.5 168.5t-126.5 429.5l28 671q0 41 -23 66t-69 51t-65 42.5
t-19 49.5q0 74 130.5 127t303.5 53q156 -13 156 -327l-29 -733q0 -142 67 -241.5t212 -102.5q168 0 268 95t100 249v761q0 52 -11 77.5t-34 46.5t-32 35.5t-9 49.5q6 90 160 90q20 0 66 -2t69 -2h127q84 0 124.5 -15.5t43.5 -70.5q0 -41 -11 -58.5t-35.5 -38t-36 -40
t-11.5 -63.5v-643z" />
    <glyph glyph-name="afii59706;" unicode="&#xe1a;" horiz-adv-x="1999" 
d="M1348 1343q0 52 -11 77.5t-34 46.5t-32 35.5t-9 49.5q5 90 159 90q20 0 66 -2t69 -2h127q84 0 124.5 -15.5t43.5 -70.5q0 -41 -11 -58.5t-35.5 -38t-36 -40t-11.5 -63.5v-774q0 -219 -88 -348.5t-247.5 -183.5t-389.5 -54q-235 2 -398 57.5t-253 188t-90 352.5l24 663
q0 41 -23 66t-69 51t-65 42.5t-19 49.5q0 74 130.5 127t303.5 53q156 -13 156 -327l-29 -725q0 -179 84 -261.5t256 -82.5q177 9 242.5 96.5t65.5 284.5v716z" />
    <glyph glyph-name="afii59707;" unicode="&#xe1b;" horiz-adv-x="2015" 
d="M1778 578q0 -219 -88 -348.5t-247.5 -183.5t-389.5 -54q-234 2 -398 57.5t-254 188t-90 352.5l25 663q0 41 -23 66t-69 51t-65 42.5t-19 49.5q0 74 130.5 127t303.5 53q156 -13 156 -327l-29 -725q0 -179 83 -261.5t257 -82.5q177 9 242 97t65 284v1413q0 55 -22.5 86.5
t-68.5 62.5t-63.5 50t-17.5 59q1 26 68 65t161 67t172 28q113 -8 147 -134t34 -325v-1421z" />
    <glyph glyph-name="afii59708;" unicode="&#xe1c;" horiz-adv-x="2159" 
d="M1929 561q0 -553 -430 -569q-123 0 -215.5 83.5t-148.5 188.5q-51 95 -51 104q0 1 1 1l-27 -71t-72.5 -130.5t-137.5 -123t-209 -52.5q-234 16 -315 238.5t-95 580.5q0 291 51 530.5t171 292.5q26 13 65 13q111 0 244 -60t133 -129q-1 -38 -44 -54.5t-88.5 -36.5
t-64.5 -77q-57 -171 -57 -520q17 -450 123 -459q69 0 130.5 163t61.5 300q0 85 -28 103q-37 18 -37 53t50 60.5t151 25.5q196 0 196 -90q0 -32 -29 -49q-28 -18 -28 -123q0 -145 57.5 -294t147.5 -149q53 0 69.5 62t16.5 205v765q0 52 -11 77.5t-34 46.5t-32 35.5t-9 49.5
q5 90 159 90q20 0 66 -2t70 -2h126q84 0 124.5 -15.5t43.5 -70.5q0 -41 -11 -58.5t-35.5 -38t-36 -40t-11.5 -63.5v-791z" />
    <glyph glyph-name="afii59709;" unicode="&#xe1d;" horiz-adv-x="2163" 
d="M1937 561q0 -553 -430 -569q-123 0 -215.5 83.5t-148.5 188.5q-50 93 -50 104q0 1 1 1l-27 -71t-72 -129.5t-137.5 -123t-210.5 -53.5q-234 16 -315.5 240t-93.5 579q0 290 51.5 530.5t169.5 292.5q26 13 65 13q111 0 244 -60t133 -129q-1 -38 -43.5 -54.5t-88 -36.5
t-64.5 -77q-58 -174 -58 -520q17 -450 123 -459q47 0 92 79.5t73 188.5t28 195q0 84 -29 103q-37 18 -37 53t50 60.5t151 25.5q196 0 196 -90q0 -32 -28.5 -49.5t-28.5 -122.5q0 -145 57.5 -294t147.5 -149q55 0 70.5 62t15.5 205v1462q0 45 -23.5 71.5t-70 53t-66 42.5
t-20.5 46q0 67 121 121.5t272 54.5q119 -11 157.5 -119.5t38.5 -286.5v-1462z" />
    <glyph glyph-name="afii59710;" unicode="&#xe1e;" horiz-adv-x="2413" 
d="M2167 627q0 -373 -134.5 -504t-295.5 -131q-156 0 -256.5 122t-152.5 287.5t-69.5 298t-17.5 168.5q0 -100 -27 -295t-137 -388t-327 -193q-194 0 -321 166t-130 485q0 123 16.5 313.5t16.5 305.5q-4 35 -26.5 58t-63 49.5t-57.5 45t-17 51.5q0 78 130.5 127t295.5 49
q168 -9 168 -282q0 -116 -17.5 -326t-23.5 -338q0 -303 110 -303q126 0 201 565q33 234 33 431q0 53 -39 90t-39 65q0 63 63.5 78.5t174.5 15.5q112 0 174.5 -15.5t62.5 -78.5q0 -33 -34.5 -68.5t-34.5 -86.5q8 -222 41 -422q36 -234 94 -402.5t119 -171.5q110 0 110 234
v716q0 52 -11 77.5t-34 46.5t-32 35.5t-9 49.5q5 90 160 90q20 0 66 -2t69 -2h127q83 0 124 -15.5t44 -70.5q0 -41 -11 -58.5t-35.5 -38t-36 -40t-11.5 -63.5v-725z" />
    <glyph glyph-name="afii59711;" unicode="&#xe1f;" horiz-adv-x="2400" 
d="M1749 -8q-156 0 -256.5 122t-152.5 287.5t-69.5 298t-17.5 168.5q0 -100 -27 -295t-137 -388t-327 -193q-194 0 -321 166t-130 485q0 123 16.5 313.5t16.5 305.5q-4 35 -26 58t-61 47.5t-58 45t-19 53.5q0 78 130.5 127t295.5 49q168 -9 168 -282q0 -116 -17.5 -326
t-23.5 -338q0 -303 111 -303q126 0 200 565q33 234 33 431q0 53 -39 90t-39 65q0 63 64 78.5t174 15.5q113 0 175.5 -15.5t62.5 -78.5q0 -33 -35 -69t-35 -86q8 -222 41 -422q36 -234 94 -402.5t119 -171.5q110 0 110 234v1413q0 45 -23.5 71.5t-70 53t-66 42.5t-20.5 46
q0 67 122 121.5t271 54.5q120 -11 158.5 -119.5t38.5 -286.5v-1392q0 -374 -134 -506.5t-296 -132.5z" />
    <glyph glyph-name="afii59712;" unicode="&#xe20;" horiz-adv-x="1999" 
d="M680 369q0 -199 -41 -286.5t-160 -90.5q-105 0 -198.5 31.5t-149.5 76.5t-61 84q0 42 24 62t74 42t76 46.5t26 75.5v364q0 92 35 140t90.5 93t55.5 70q0 24 -71 62.5t-100.5 60t-29.5 70.5q0 129 242 270q206 119 532 119q310 0 492 -107q158 -97 197.5 -201.5
t39.5 -260.5v-803q0 -47 10.5 -67t34 -35.5t36 -34.5t13.5 -64q0 -53 -40.5 -69.5t-127.5 -16.5h-127q-23 0 -69 -2t-66 -2q-160 0 -160 90q0 37 10.5 53t32 35.5t32.5 44t11 76.5v770q0 117 -16 185t-87 113.5t-224 49.5q-101 0 -179.5 -24t-119.5 -59.5t-41 -67.5
q0 -19 18 -32.5t65.5 -41t72 -50.5t24.5 -53q0 -35 -63 -90t-88 -84t-25 -96v-446z" />
    <glyph glyph-name="afii59713;" unicode="&#xe21;" horiz-adv-x="2068" 
d="M705 139q-15 -39 -81.5 -97t-205.5 -58q-116 0 -195.5 82t-79.5 196q0 65 21 111q30 74 82 108t102 42q36 6 45 6q4 0 4 -1q-7 6 -18 22.5t-14 43.5q-13 88 -13 111v548q0 41 -23 66t-69 51t-65 42.5t-19 49.5q0 74 130.5 127t303.5 53q156 -13 156 -327v-725
q0 -174 93.5 -259t250.5 -85q307 0 307 381v716q0 52 -11 77.5t-34 46.5t-32 35.5t-9 49.5q5 90 160 90q20 0 66 -2t69 -2h127q83 0 124 -15.5t44 -70.5q0 -41 -11 -58.5t-35.5 -38t-36 -40t-11.5 -63.5v-774q0 -586 -701 -586q-125 0 -218 32t-144 70.5z" />
    <glyph glyph-name="afii59714;" unicode="&#xe22;" horiz-adv-x="1888" 
d="M1274 1245q0 73 -24 100t-78 68t-54 74q3 54 124 107t245 53q196 -27 196 -451v-565q0 -316 -172 -479.5t-610 -163.5q-339 6 -519.5 139t-180.5 381q7 153 96.5 245t186.5 128.5t130 36.5q-80 0 -211 45.5t-178 175.5q-16 43 -16 98q0 99 55.5 191t136.5 141
q110 73 279 73q183 0 262 -86q57 -55 57 -151q0 -109 -102 -115q-32 0 -47.5 8t-43 29.5t-49.5 31t-61 9.5q-106 -9 -106 -160q3 -67 73 -113.5t156 -54.5q75 0 157 20.5t105 20.5q9 0 33 -8q53 -26 53 -90q0 -30 -20 -57q-7 -8 -106.5 -33t-192.5 -66t-163 -123t-71 -212
q0 -263 336 -263q151 4 221.5 63t86.5 143t16 220v590z" />
    <glyph glyph-name="afii59715;" unicode="&#xe23;" horiz-adv-x="1720" 
d="M1163 406q21 52 21 135q0 164 -103 245q-56 43 -302.5 78t-350 55.5t-215 101t-111.5 241.5q8 149 157 264t351 121q180 0 358 -31t249 -35q49 0 76 9t50 27t41 25q43 0 76.5 -37.5t42.5 -101.5q0 -192 -262 -192q-54 9 -152 34.5t-172.5 38.5t-166.5 13
q-106 0 -179.5 -39t-83.5 -117q0 -77 92 -98.5t370.5 -60t398.5 -91.5q124 -55 180.5 -167.5t56.5 -250.5q0 -163 -61 -278q-152 -311 -766 -311q-228 4 -405 91t-177 269q3 89 60.5 151t160.5 62q75 -3 121.5 -45t46.5 -98q0 -47 -28 -86q0 -47 91 -81t187 -34
q270 0 348 193z" />
    <glyph glyph-name="afii59716;" unicode="&#xe24;" horiz-adv-x="1982" 
d="M279 774q0 91 35 140t90 94t55 69t-71 62.5t-100.5 60t-29.5 70.5q0 129 242 270q206 119 532 119q310 0 492 -107q158 -97 197.5 -201.5t39.5 -260.5v-1393q0 -47 10.5 -67t34 -35.5t36 -34.5t13.5 -64q0 -53 -40.5 -69.5t-126.5 -16.5h-127q-22 0 -69 -2t-67 -2
q-79 0 -119 18.5t-40 71.5q0 36 8.5 50t32 36.5t34.5 47t11 75.5v1360q0 117 -16 185t-86.5 113.5t-225.5 49.5q-101 0 -179.5 -24t-119.5 -59.5t-41 -67.5q0 -19 18 -32.5t65.5 -41t72 -50.5t24.5 -53q0 -35 -63 -90t-88 -84t-25 -96v-405q0 -49 26 -74.5t76 -47t74.5 -41
t24.5 -63.5q-7 -59 -128.5 -122.5t-281.5 -69.5q-200 0 -200 377v405z" />
    <glyph glyph-name="afii59717;" unicode="&#xe25;" horiz-adv-x="1884" 
d="M1266 1090q0 141 -71.5 230t-293.5 89q-164 -5 -208 -40.5t-110 -125.5t-161 -104q-83 0 -131.5 47.5t-48.5 116.5q0 50 24 94q73 131 248.5 192.5t382.5 61.5q778 0 778 -529v-696q0 -119 17 -180q8 -22 38 -42.5t43 -36t13 -56.5q0 -64 -57 -89.5t-218 -25.5
q-99 0 -151.5 18t-73 64t-20.5 139v643q-53 0 -218 -24.5t-286 -77.5q-164 -73 -164 -258q0 -89 42.5 -155t104.5 -66q58 0 94.5 29.5t57.5 35.5q42 8 53 8q59 0 91 -37t32 -94q0 -39 -12 -69q-31 -74 -134 -115.5t-231 -44.5q-142 0 -258 51.5t-185 157t-69 258.5
q0 57 4 90q29 201 165.5 299.5t367.5 163.5q136 39 298.5 58.5t246.5 19.5z" />
    <glyph glyph-name="afii59718;" unicode="&#xe26;" horiz-adv-x="2019" 
d="M705 369q0 -199 -41 -286.5t-160 -90.5q-105 0 -198.5 31.5t-150 76.5t-61.5 84q0 42 24 62t74 41.5t76.5 46.5t26.5 76v364q0 91 35 140t90 94t55 69t-71 62.5t-100.5 60t-29.5 70.5q0 128 242 270q206 119 533 119q309 0 491 -107q160 -98 199 -202t39 -260v-1393
q0 -47 10.5 -67t34 -35.5t36 -34.5t13.5 -64q0 -53 -41 -69.5t-127 -16.5h-127q-23 0 -69 -2t-66 -2q-160 0 -160 90q0 36 8.5 50t32 36.5t34.5 47t11 75.5v1360q0 117 -16 185t-86.5 113.5t-225.5 49.5q-101 0 -179.5 -24t-119.5 -59.5t-41 -67.5q0 -19 18 -32.5
t66.5 -41.5t72.5 -50.5t24 -52.5q0 -35 -63 -90t-88 -84t-25 -96v-446z" />
    <glyph glyph-name="afii59719;" unicode="&#xe27;" horiz-adv-x="1724" 
d="M430 528q29 -15 33.5 -50t8 -79.5t28.5 -70.5q89 -90 225 -90q119 0 225 57q68 37 114 118.5t68.5 189.5t22.5 228q0 272 -90 422q-85 144 -307 144q-87 0 -170 -24.5t-138 -65.5t-61 -86q-17 -140 -119 -140q-63 0 -117.5 55.5t-54.5 129.5q0 41 25 90q154 293 643 299
q800 0 811 -762q0 -204 -30 -348.5t-104.5 -254t-205.5 -196.5q-190 -123 -487 -123q-131 0 -258 33q-129 38 -224.5 125.5t-95.5 222.5q16 86 70.5 139.5t122.5 53.5q39 0 65 -17z" />
    <glyph glyph-name="afii59720;" unicode="&#xe28;" horiz-adv-x="2052" 
d="M1356 1597q86 10 123 82q16 29 16 115q6 61 213 61q93 0 167.5 -18.5t82.5 -50.5q0 -143 -78 -221q-114 -115 -213 -115q11 0 58 -56.5t65 -123.5q37 -126 37 -250v-733q0 -47 10.5 -67t34 -35.5t36 -34.5t13.5 -64q0 -53 -41 -69.5t-127 -16.5h-127q-23 0 -69 -2t-66 -2
q-160 0 -160 90q0 37 10.5 53t32 35.5t32.5 44t11 76.5v741q0 377 -381 377q-159 0 -256 -52.5t-141 -142t-57 -206.5q-4 -29 -4 -86q0 -147 49 -343q44 -175 48 -175q1 0 1 2q0 26 17 139.5t48 245.5q87 367 226 397q107 0 204 -55t103 -117q0 -29 -16.5 -43t-51.5 -28
t-61.5 -35t-42.5 -62q-48 -132 -97 -373.5t-75 -326.5q-28 -95 -85.5 -123.5t-176.5 -28.5q-14 0 -49 -2t-54 -2q-185 0 -270 225q-131 368 -131 672q0 281 119 450q118 166 311 237t405 71q243 0 357 -54z" />
    <glyph glyph-name="afii59721;" unicode="&#xe29;" horiz-adv-x="1974" 
d="M1733 778v-200q0 -325 -181.5 -457.5t-539.5 -132.5q-359 3 -552.5 140t-193.5 462l25 663q0 41 -23 66t-69 51t-65 42.5t-19 49.5q0 74 130.5 127t303.5 53q156 -13 156 -327l-29 -725q0 -179 83 -261.5t257 -82.5q177 6 242 95t65 286v61h1q0 -1 -43 -6q-51 -6 -105 -6
q-83 0 -164 16q-207 44 -213 234q0 75 48 127.5t140 52.5q29 -5 34 -64.5t27.5 -96t114.5 -44.5q62 0 114 9q46 7 46 8v0v425q0 52 -11 77.5t-34 46.5t-32 35.5t-9 49.5q5 90 160 90q20 0 66 -2t69 -2h127q83 0 124 -15.5t44 -70.5q0 -41 -11 -58.5t-35.5 -38t-36 -40
t-11.5 -63.5v-348v0q3 0 69 45q68 46 107 90q8 8 16 8q22 0 35.5 -41.5t13.5 -93.5q0 -57 -16 -78q-32 -55 -107 -97t-118 -59z" />
    <glyph glyph-name="afii59722;" unicode="&#xe2a;" horiz-adv-x="1905" 
d="M1241 1614q21 4 56 19t51 46q16 29 16 115q6 61 213 61q93 0 167.5 -18.5t82.5 -50.5q0 -143 -78 -221q-115 -115 -213 -115q11 0 58 -56.5t65 -123.5q37 -126 37 -271v-573q0 -123 16 -180q7 -24 38.5 -46t43.5 -35t12 -54q0 -64 -57 -89.5t-217 -25.5
q-149 0 -197.5 43.5t-48.5 177.5v643q-54 0 -218 -24.5t-286 -77.5q-164 -74 -164 -258q0 -88 43 -154.5t105 -66.5q58 0 94.5 29.5t57.5 35.5q40 8 53 8q59 0 91 -37t32 -94q0 -40 -13 -69q-31 -74 -134 -115.5t-230 -44.5q-219 0 -365.5 119t-146.5 348q0 57 4 90
q29 201 165.5 299.5t366.5 163.5q135 39 298.5 58.5t246.5 19.5q0 141 -71 230t-293 89q-166 -5 -208 -40t-108.5 -125.5t-163.5 -104.5q-84 0 -132 48t-48 116q0 51 25 94q47 86 155 144t235.5 84t240.5 26q121 0 231 -18q95 -16 95 -19h-3z" />
    <glyph glyph-name="afii59723;" unicode="&#xe2b;" horiz-adv-x="2036" 
d="M1229 1065q-190 -6 -328 -205q-151 -221 -151 -504v-69q0 -49 11 -69.5t34 -35.5t35.5 -33t13.5 -63q0 -53 -41 -69.5t-127 -16.5h-127q-23 0 -69 -2t-66 -2q-160 0 -160 90q0 37 10.5 53t32 35.5t32.5 44t11 76.5v958q0 41 -23 66t-69 51t-65 42.5t-19 49.5
q0 48 62.5 89.5t166 66t213.5 24.5q156 -13 156 -327v-152l-66 -291q10 42 58 130t151 165q132 99 324 99q-84 3 -148.5 51.5t-64.5 120.5q0 116 118.5 164.5t286.5 48.5q416 0 426 -209q0 -109 -87 -151t-150 -42q19 0 69 -29t86 -90q58 -102 58 -294v-549q0 -47 10.5 -67
t34 -35.5t36 -34.5t13.5 -64q0 -53 -41 -69.5t-127 -16.5h-127q-23 0 -69 -2t-66 -2q-160 0 -160 90q0 37 10.5 53t32 35.5t32.5 44t11 76.5v541q0 130 -43 179.5t-141 49.5z" />
    <glyph glyph-name="afii59724;" unicode="&#xe2c;" horiz-adv-x="2363" 
d="M2163 1081v-454q0 -373 -134.5 -504t-295.5 -131q-201 0 -311 163.5t-147.5 341.5t-37.5 240q0 -86 -27 -251.5t-137 -329.5t-328 -164q-193 0 -320 166t-130 485q0 123 16.5 313.5t16.5 305.5q-4 35 -26.5 58t-63 49.5t-57.5 45t-17 51.5q0 78 130.5 127t295.5 49
q168 -9 168 -282q0 -116 -17.5 -326t-23.5 -338q0 -299 110 -303q116 0 193 287q53 193 53 299q0 52 -39 90t-39 66q0 63 63.5 78.5t174.5 15.5q112 0 174.5 -15.5t62.5 -78.5q0 -32 -34.5 -68.5t-34.5 -87.5q5 -128 61 -291q66 -179 95 -235.5t85 -59.5q111 0 111 234v503
q0 134 -70 218q-51 65 -278 65q-44 0 -101 -2t-63 -2q-45 0 -45 107q0 102 45 114q37 8 209 8q269 0 348 58q42 31 56 66.5t22.5 89.5t19.5 77q18 41 189 41q95 0 175.5 -14.5t86.5 -38.5q0 -173 -119 -275q-135 -122 -356 -122q38 0 107 -31t122 -113q62 -96 62 -295z" />
    <glyph glyph-name="afii59725;" unicode="&#xe2d;" horiz-adv-x="1843" 
d="M684 840q-86 -52 -86 -226q0 -163 61 -258q93 -123 263 -123q176 0 278 148q78 128 78 418q0 362 -143 512q-100 98 -275 98q-149 0 -221 -66q-20 -17 -54 -54t-57.5 -55.5t-68.5 -37.5q-21 -8 -66 -8q-139 0 -139 172q31 134 206.5 210.5t424.5 76.5q397 0 597 -202
t206 -552q0 -440 -175.5 -671t-574.5 -234q-337 0 -542 153.5t-212 452.5q0 269 146 396.5t350 127.5q32 0 98 -8q92 -14 146.5 -72t54.5 -125q0 -53 -33 -86q-46 -45 -82 -45q-28 0 -72 35t-71 35q-19 0 -37 -12z" />
    <glyph glyph-name="afii59726;" unicode="&#xe2e;" horiz-adv-x="1843" 
d="M1675 893q0 -432 -178 -664t-571 -241q-220 0 -388.5 66.5t-265 202.5t-100.5 337q0 269 146 396.5t350 127.5q32 0 98 -8q92 -14 146.5 -72t54.5 -125q0 -51 -33 -86q-46 -45 -82 -45q-28 0 -72 35t-71 35q-19 0 -37 -12q-86 -51 -86 -226q0 -166 61 -258
q93 -123 262 -123q177 0 279 148q78 128 78 418q0 363 -144 512q-98 98 -274 98q-149 0 -221 -66q-20 -17 -53.5 -53.5t-56.5 -55t-71 -38.5q-20 -8 -65 -8q-139 0 -139 172q31 132 209 208t421 79q105 0 214 -16q96 -15 96 -17h-2q21 4 55.5 18.5t50.5 46.5q17 29 17 115
q6 61 213 61q92 0 166.5 -18.5t82.5 -50.5q0 -144 -77 -221q-66 -66 -137.5 -98.5t-92.5 -32.5q5 -5 39.5 -36.5t73.5 -93t70 -165t34 -246.5z" />
    <glyph glyph-name="afii59727;" unicode="&#xe2f;" horiz-adv-x="1872" 
d="M590 1343q0 -106 196 -106q240 0 349 119q56 58 78 109t41 113.5t36 63.5q166 0 263.5 -64t97.5 -177v-1073q0 -136 -93 -240t-239 -104q-32 5 -91 46t-105 94t-46 97q8 30 54.5 40t60.5 26q53 53 53 164q0 17 -2 55t-2 59v582q-6 -6 -55.5 -46t-148 -77.5t-251.5 -52.5
q-470 0 -573 200q-41 76 -41 156q0 137 114.5 228.5t295.5 91.5q102 -11 151 -54.5t49 -93.5q0 -37 -28 -65q-37 -25 -103 -25q-47 0 -61 -66z" />
    <glyph glyph-name="afii59729;" unicode="&#xe30;" horiz-adv-x="1360" 
d="M561 1286q44 -69 209 -69q141 0 238 57q67 39 97.5 71t55 66t39.5 35q41 0 41 -152q0 -78 -16 -110q-23 -62 -157.5 -124t-354.5 -65q-258 0 -414 77t-156 194q10 89 112.5 146.5t203.5 57.5q52 0 73 -16q21 -15 21 -41q0 -8 -4 -33t-4 -41q0 -25 16 -53zM561 467
q45 -70 209 -70q139 0 238 58q67 39 97.5 71t55 66t39.5 35q41 0 41 -152q0 -78 -16 -110q-23 -62 -157.5 -124t-354.5 -65q-258 0 -414 77t-156 193q10 89 112 147t204 58q52 0 73 -16q21 -15 21 -41q0 -10 -4 -34t-4 -40q0 -26 16 -53z" />
    <glyph glyph-name="afii59728;" unicode="&#xe31;" 
d="M-532 2322q33 -73 245 -73q218 0 353 61q67 32 113 63.5t93 70.5t73 57t48 18q29 -14 29 -156q0 -90 -21 -122q-27 -42 -124 -95.5t-253 -92t-356 -38.5q-78 0 -119 4q-199 14 -380 92t-181 211q0 13 8 45q21 78 137 125.5t232 47.5q85 0 115 -29q20 -21 20 -45
q0 -17 -16 -62t-16 -82z" />
    <glyph glyph-name="afii59730;" unicode="&#xe32;" horiz-adv-x="1618" 
d="M279 1040q-96 0 -179.5 65t-83.5 173q6 122 201 254q182 127 488 127q288 0 462 -107q160 -98 199 -202t39 -260v-803q0 -49 10 -68.5t31 -34.5t31 -34t10 -64q-3 -51 -44 -68.5t-124 -17.5h-115q-23 0 -69 -2t-66 -2q-160 0 -160 90q0 37 10.5 53t32 35.5t32.5 44
t11 76.5v770q0 169 -60.5 258.5t-266.5 89.5q-177 0 -240 -70t-88 -180.5t-61 -122.5z" />
    <glyph glyph-name="afii59731;" unicode="&#xe33;" horiz-adv-x="1675" 
d="M-451 1925q-202 0 -314 97t-112 231q0 130 107.5 224.5t298.5 94.5q203 0 316.5 -97.5t113.5 -229.5q0 -130 -107.5 -225t-302.5 -95zM332 1040q-96 0 -179 65t-83 173q6 121 200 254q182 127 488 127q287 0 463 -107q158 -97 197.5 -201.5t39.5 -260.5v-803
q0 -49 10 -68.5t31 -34.5t31 -34t10 -64q-3 -51 -44 -68.5t-124 -17.5h-115q-23 0 -69 -2t-66 -2q-79 0 -119 18.5t-40 71.5q0 37 10.5 53t32 35.5t32.5 44t11 76.5v770q0 170 -60 259t-268 89q-177 0 -240 -70t-88 -180.5t-61 -122.5zM-463 2372q-68 0 -107.5 -37
t-39.5 -86q0 -48 38 -81.5t109 -33.5q74 0 113 34.5t39 84.5q0 47 -39 83t-113 36z" />
    <glyph glyph-name="afii59732;" unicode="&#xe34;" 
d="M-266 1950q-23 0 -127.5 35t-243.5 59t-358 24q-198 0 -335 -25.5t-248.5 -61t-141.5 -35.5q-33 0 -49 16q-21 15 -21 57q0 58 38 125t93 97q107 65 619 65q460 0 655 -49q59 -14 107.5 -87.5t48.5 -141.5q0 -62 -37 -78z" />
    <glyph glyph-name="afii59733;" unicode="&#xe35;" 
d="M-610 2294v106q0 39 -14 59t-15 31q0 82 225 82q242 0 242 -78q0 -16 -14.5 -38.5t-14.5 -55.5v-266q0 -53 13 -94q0 -8 4 -27t4 -31q0 -26 -21 -36q-19 0 -116 34.5t-241.5 61t-371.5 26.5q-197 0 -333.5 -25.5t-249 -61t-142.5 -35.5q-33 0 -49 16q-20 15 -20 61
q0 55 38 122t93 96q120 65 589 65q131 0 240 -4q108 -5 154 -8z" />
    <glyph glyph-name="afii59734;" unicode="&#xe36;" 
d="M-688 2290q-6 7 -15.5 29t-9.5 57q0 11 8 53q19 91 95.5 117t187.5 26q107 -6 166 -61t59 -144q0 -120 -90 -180l28 -35.5t37 -60.5t17 -68q0 -43 -37 -73q-16 -8 -24 -8q-15 0 -113.5 36t-241.5 63t-354 27q-197 0 -333.5 -25.5t-249 -61t-142.5 -35.5q-33 0 -49 16
q-20 15 -20 57q0 58 38 125t93 97q114 65 581 65q353 0 369 -16z" />
    <glyph glyph-name="afii59735;" unicode="&#xe37;" 
d="M-1061 2298v110q0 39 -13.5 60.5t-15.5 30.5q0 77 193 77q201 0 201 -73q0 -17 -14.5 -39.5t-14.5 -55.5v-110l188 -4v110q0 38 -13.5 58.5t-14.5 31.5q0 78 192 78q201 0 201 -73q0 -17 -14.5 -39.5t-14.5 -55.5v-270q0 -53 13 -94q0 -8 4 -27t4 -31q0 -26 -21 -36
q-19 0 -116 34.5t-241.5 61t-371.5 26.5q-197 0 -333.5 -25.5t-249 -61t-142.5 -35.5q-33 0 -49 16q-20 15 -20 61q0 58 38 124.5t93 93.5q122 61 405 61q47 0 81 -1q33 -2 46 -3z" />
    <glyph glyph-name="afii59736;" unicode="&#xe38;" 
d="M-639 -483q0 42 -22 64t-66.5 44.5t-62 37.5t-17.5 46q3 63 116.5 105.5t235.5 42.5q77 0 115 -17q68 -26 89.5 -78t21.5 -168v-192q0 -15 14 -36t14 -46q-5 -74 -237 -74q-234 0 -234 74q2 25 17.5 47t15.5 39v111z" />
    <glyph glyph-name="afii59737;" unicode="&#xe39;" 
d="M-905 -307v-99q0 -131 139 -131t139 115v78q0 23 -28.5 52.5t-28.5 66.5q9 82 229 82q128 0 185 -15t65 -63q0 -38 -22.5 -70.5t-22.5 -52.5v-119q0 -153 -144.5 -207.5t-383.5 -58.5q-236 0 -370 50.5t-134 195.5v57q0 59 -45 82l-59.5 23t-30.5 38q3 61 109.5 102.5
t226.5 41.5q86 0 123 -25q53 -34 53 -143z" />
    <glyph glyph-name="afii59738;" unicode="&#xe3a;" 
d="M-487 -623q-124 0 -195.5 58.5t-71.5 134.5t69.5 135t192.5 62q131 0 203 -55t72 -134q0 -82 -71 -141.5t-199 -59.5z" />
    <glyph glyph-name="f71c;" unicode="&#xf71c;" horiz-adv-x="909" 
d="M0 0v6l6 -6h-6z" />
    <glyph glyph-name="f71d;" unicode="&#xf71d;" horiz-adv-x="909" 
d="M53 -319q0 154 -1 194.5t-2 52t-5 39.5q0 33 90 33h606q127 0 127 -33q-8 -75 -8 -291q0 -180 -90 -180q-17 0 -42.5 64.5t-56 106.5t-89.5 42h-164q-122 0 -156 -21q-17 -10 -59.5 -99t-59.5 -89q-90 0 -90 181z" />
    <glyph glyph-name="afii59743;" unicode="&#xe3f;" horiz-adv-x="2150" 
d="M475 299v1073q0 48 -21.5 63.5t-61.5 22.5t-60.5 22t-20.5 60q0 65 48.5 81.5t132.5 16.5h606v230h196v-234q626 0 635 -389q0 -174 -96.5 -267t-217 -122t-222.5 -29q8 -4 49 -4q169 0 326.5 -76t160.5 -292q0 -179 -89 -278.5t-207 -134.5t-208 -39q-91 -5 -131 -7
v-217h-196v221h-623q-96 0 -134 19.5t-38 82.5q3 45 25 60.5t63.5 26.5t62.5 32t21 78zM1098 1450h-238v-532h238v532zM1294 926q63 4 156.5 59t93.5 219q-4 101 -59 154.5t-109.5 69.5t-81.5 18v-520zM1294 201q59 2 146.5 55t87.5 219q-3 145 -89.5 193.5t-144.5 52.5
v-520zM1098 205v524h-238v-524h238z" />
    <glyph glyph-name="afii59744;" unicode="&#xe40;" horiz-adv-x="975" 
d="M279 434v909q0 52 -11 77.5t-34 46.5t-32 35.5t-9 49.5q0 90 159 90q20 0 66 -2t69 -2h127q87 0 127.5 -15.5t40.5 -70.5q-1 -45 -13 -62.5t-35.5 -33t-34.5 -35.5t-11 -69v-942q0 -50 27 -75t79 -46.5t77.5 -41.5t25.5 -63q-7 -59 -129 -125.5t-281 -66.5
q-93 6 -150.5 119.5t-57.5 322.5z" />
    <glyph glyph-name="afii59745;" unicode="&#xe41;" horiz-adv-x="1749" 
d="M279 434v909q0 52 -11 77.5t-34 46.5t-32 35.5t-9 49.5q0 90 159 90q20 0 66 -2t69 -2h127q87 0 127.5 -15.5t40.5 -70.5q-1 -45 -13 -62.5t-35.5 -33t-34.5 -35.5t-11 -69v-942q0 -50 27 -75t79 -46.5t77.5 -41.5t25.5 -63q-7 -59 -129 -125.5t-281 -66.5
q-93 6 -150.5 119.5t-57.5 322.5zM1073 434v909q0 52 -11 77.5t-34 46.5t-32 35.5t-9 49.5q0 90 160 90q20 0 66 -2t69 -2h127q86 0 127 -15.5t41 -70.5q-1 -45 -13 -62.5t-35.5 -33t-34.5 -35.5t-11 -69v-942q0 -50 27 -75t79 -46.5t77.5 -41.5t25.5 -63
q-7 -58 -129.5 -125t-280.5 -67q-94 6 -151.5 119.5t-57.5 322.5z" />
    <glyph glyph-name="afii59746;" unicode="&#xe42;" horiz-adv-x="1049" 
d="M786 1778v-1368q0 -50 27 -75t79 -46.5t77.5 -41.5t25.5 -63q-7 -59 -129 -125.5t-280 -66.5q-94 6 -151.5 119.5t-57.5 322.5v1278q0 103 -12 141t-58 97q-50 62 -138.5 91.5t-179.5 41.5t-91 14q-9 47 -9 70q0 152 124 294t294 160q81 9 123 9q139 0 333 -49.5
t273 -49.5q64 6 122.5 36t86.5 30q13 0 37 -8q53 -21 53 -123q0 -67 -27.5 -124t-74.5 -73q-61 -20 -148 -20q-70 0 -132 11.5t-184 42t-188 43.5t-126 13q-143 -8 -164 -98q0 -20 98.5 -42t172.5 -47.5t138 -90.5q56 -59 71 -120.5t15 -182.5z" />
    <glyph glyph-name="afii59747;" unicode="&#xe43;" horiz-adv-x="1180" 
d="M692 2195q0 181 -225 181q-80 0 -134 -37.5t-54 -93.5q9 -33 49 -33q10 0 33 2t32 2q52 0 58 -66q0 -60 -53 -119.5t-185 -64.5q-150 0 -234.5 79t-84.5 208q14 155 161 264.5t445 112.5q198 0 330 -49t195.5 -130t68.5 -182q0 -70 -23.5 -124t-69 -126.5t-69 -130.5
t-23.5 -127v-1351q0 -50 27 -75t79 -46.5t77.5 -41.5t25.5 -63q-7 -59 -129 -125.5t-280 -66.5q-94 6 -151.5 119.5t-57.5 322.5v1315q0 61 25 116t70.5 120.5t70.5 111.5t26 98z" />
    <glyph glyph-name="afii59748;" unicode="&#xe44;" horiz-adv-x="1159" 
d="M885 410q0 -50 27 -75t79 -46.5t77.5 -41.5t25.5 -63q-7 -58 -129.5 -125t-280.5 -67q-94 6 -151.5 119.5t-57.5 322.5v1462q0 66 32 111.5t100.5 125.5t68.5 112q0 9 -17 32q-16 17 -36 17q-33 0 -100.5 -61.5t-88.5 -61.5q-18 0 -89 55t-107 55q-74 -24 -74 -90
q0 -8 2 -24t2 -25q0 -55 -94 -65q-69 0 -147.5 47.5t-78.5 185.5q7 137 110.5 224t197.5 87q67 0 169 -69.5t117 -69.5q28 0 143.5 73t180.5 75q92 0 191.5 -74.5t111.5 -163.5q0 -105 -30 -162t-92 -145.5t-62 -138.5v-1536z" />
    <glyph glyph-name="afii59749;" unicode="&#xe45;" horiz-adv-x="1663" 
d="M332 1040q-96 0 -179 65t-83 173q6 121 200 254q182 127 488 127q287 0 463 -107q158 -97 197.5 -201.5t39.5 -260.5v-1393q0 -49 10 -68.5t31 -34.5t31 -34t10 -64q-3 -51 -44 -68.5t-124 -17.5h-115q-23 0 -69 -2t-66 -2q-79 0 -119 18.5t-40 71.5q0 36 8.5 50t32 36.5
t34.5 47t11 75.5v1360q0 170 -60 259t-268 89q-177 0 -240 -70t-88 -180.5t-61 -122.5z" />
    <glyph glyph-name="afii59750;" unicode="&#xe46;" horiz-adv-x="2732" 
d="M1995 1638q74 -6 159.5 -56.5t143 -127t57.5 -151.5v-1254q0 -160 -85.5 -281t-229.5 -137q-17 0 -81.5 54t-120.5 118t-56 91q0 8 8 16q8 4 33 15t45 23.5t33 26.5q53 53 53 164q0 18 -2 56t-2 59v942q0 43 -26 81t-64 38q-31 0 -137 -59.5t-142 -59.5q-31 0 -153 65.5
t-154 65.5q-47 0 -79 -40t-32 -99q4 -42 20 -58.5t43 -28t36 -20.5q8 -8 8 -16q0 -37 -103.5 -112.5t-142.5 -75.5q-77 10 -147 108.5t-70 235.5q0 61 8 94q19 98 95.5 172t169.5 113.5t157 41.5q60 0 191 -88t153 -88q26 0 126.5 57.5t162.5 86t125 28.5z" />
    <glyph glyph-name="afii59751;" unicode="&#xe47;" 
d="M-418 2367q92 0 142.5 -53.5t50.5 -130.5q0 -73 -48 -131t-137 -74q-64 -8 -98 -8q-106 0 -171.5 28.5t-160.5 84t-139 55.5q-33 0 -151.5 -58t-188 -86t-147.5 -28q-58 0 -107 25q-90 44 -90 266q0 159 66 262q121 176 430 176q59 0 219 -10t268 -10q143 4 177 37.5
t39.5 86t49.5 52.5q81 -6 133 -58t52 -127q-8 -103 -86.5 -137.5t-212.5 -38.5q-82 0 -257 9q-175 8 -272 8q-144 0 -196 -29q-66 -35 -66 -156q0 -81 33 -94q33 0 65 15t87.5 47.5t91.5 48.5t71 16q38 0 66 -16q173 -103 240 -135.5t75 -32.5q0 191 172 196z" />
    <glyph glyph-name="afii59752;" unicode="&#xe48;" 
d="M-389 3228q108 0 154.5 -11.5t46.5 -62.5v-389q0 -56 -44.5 -71t-160.5 -15q-117 0 -161 13.5t-44 68.5v389q0 53 49.5 65.5t159.5 12.5z" />
    <glyph glyph-name="afii59753;" unicode="&#xe49;" 
d="M-401 2863q0 -20 106 -20q143 0 229 36q75 35 110.5 74t52 85t18.5 50q17 29 143 29q152 0 164 -37q0 -71 -75.5 -157t-202 -151t-263.5 -81q-172 -16 -287 -16q-372 0 -372 86q2 16 46 67t44 113q0 25 -16.5 37t-42.5 20t-51.5 19.5t-28.5 29.5q0 58 105 94.5t222 36.5
q95 0 131 -24q66 -48 66 -123q0 -52 -28.5 -98.5t-69.5 -69.5z" />
    <glyph glyph-name="afii59754;" unicode="&#xe4a;" 
d="M-684 2777q0 -32 -69.5 -65t-176.5 -33q-46 6 -78.5 79.5t-35.5 161.5q0 70 20 123q61 148 201 148q44 -1 75 -22.5t73.5 -61t56.5 -39.5q24 0 98.5 61.5t118.5 61.5q98 0 143 -59.5t45 -141.5q0 -94 -37 -143q64 10 104 33.5t76 80.5q18 31 27 61.5t14 60t9 50.5
q17 58 147 58q120 0 135 -37q0 -34 -13 -58.5t-41.5 -63t-43.5 -66.5q-119 -236 -369 -275q-74 -8 -119 -8q-168 0 -168 65q0 17 13 37q28 68 28 131q0 71 -36 86q-24 0 -72 -41t-64 -41q-9 0 -60 37t-79 37q-16 -20 -16 -115q4 -31 24.5 -42.5t43 -22.5t26.5 -37z" />
    <glyph glyph-name="afii59755;" unicode="&#xe4b;" 
d="M-188 2765q0 -57 -52 -71.5t-166 -14.5q-104 0 -148 14.5t-44 67.5v127h-217q-49 0 -49 90q0 82 49 82h217v147q0 53 48.5 65.5t152.5 12.5q209 0 209 -74v-147h217q49 0 49 -82q0 -90 -49 -90h-217v-127z" />
    <glyph glyph-name="afii59756;" unicode="&#xe4c;" 
d="M-389 2642q2 -37 64 -48t70.5 -34.5t8.5 -36.5q0 -106 -233 -106q-133 0 -214 65.5t-81 179.5q14 87 70.5 133t123.5 63.5t207 45.5q213 43 213 131v17q0 28 33 28q50 0 76 -39.5t26 -91.5q0 -21 -8 -45q-26 -71 -78 -113t-163 -63q-115 -20 -115 -86z" />
    <glyph glyph-name="afii59757;" unicode="&#xe4d;" 
d="M-594 1872q-155 0 -243.5 87.5t-88.5 207.5q0 118 88.5 206.5t243.5 88.5q154 0 239 -88t85 -207q0 -120 -85 -207.5t-239 -87.5zM-594 2290q-59 0 -91 -36.5t-32 -86.5q0 -51 32 -87t91 -36t91 36t32 87q0 50 -31.5 86.5t-91.5 36.5z" />
    <glyph glyph-name="afii59758;" unicode="&#xe4e;" 
d="M-152 2048q-90 -90 -249 -90q-128 0 -181 65q-49 63 -49 152q0 95 49 164q82 115 254 115q-54 4 -102.5 46t-48.5 121q17 90 94.5 148t187.5 74q188 0 242 -29l-86 -78l-40.5 12t-45.5 9q-34 0 -70 -13q-107 -35 -118 -139q0 -60 49.5 -93.5t113.5 -33.5l-36 -94
q-148 0 -234 -82q-49 -49 -49 -127q0 -38 20 -66q35 -45 95 -45q89 0 131 58z" />
    <glyph glyph-name="afii59759;" unicode="&#xe4f;" horiz-adv-x="2089" 
d="M1065 0q-261 0 -445 115.5t-277 304.5t-93 399t93 399t277.5 304.5t444.5 115.5q259 0 445 -115.5t280 -303.5t94 -400t-94 -400t-279.5 -303.5t-445.5 -115.5zM1065 1528q-225 0 -384 -99t-240 -262t-81 -348q0 -181 81 -344.5t239.5 -263.5t384.5 -100q225 0 385.5 100
t242 263t81.5 345q0 186 -81.5 348t-242.5 261.5t-385 99.5zM1065 352q-219 0 -343 139t-124 328q0 121 53.5 228t160 173t253.5 66t253.5 -66t160 -173t53.5 -228q0 -189 -124 -328t-343 -139z" />
    <glyph glyph-name="afii59760;" unicode="&#xe50;" horiz-adv-x="1880" 
d="M188 631q0 196 88 342t262.5 225.5t428.5 79.5q251 0 427.5 -81.5t263.5 -227.5t87 -338q-1 -193 -89 -339.5t-263 -226.5t-426 -81q-378 0 -578.5 174t-200.5 473zM967 1057q-402 0 -402 -426q0 -194 88 -310t314 -116q401 0 401 426t-401 426z" />
    <glyph glyph-name="afii59761;" unicode="&#xe51;" horiz-adv-x="1987" 
d="M1102 483q65 -59 65 -168q0 -83 -41 -147q-115 -184 -385 -184q-251 18 -387.5 176.5t-136.5 445.5q6 209 100.5 361t270.5 231.5t416 79.5q425 0 620 -187t195 -493q-1 -224 -96 -388.5t-235 -267.5t-269 -149.5t-199 -46.5q-25 6 -45.5 38t-20.5 56q0 13 9 13
q111 33 213 112t173.5 240t71.5 409q-10 178 -110 290.5t-287 115.5q-179 0 -292 -109t-126 -313q0 -165 67.5 -248.5t137.5 -83.5q53 0 53 37q0 26 -12 56t-12 47q0 19 24 69q27 53 107 53t131 -45z" />
    <glyph glyph-name="afii59762;" unicode="&#xe52;" horiz-adv-x="2236" 
d="M8 1909q16 45 152 45q118 0 209 -29q319 -97 319 -450v-1008q0 -77 33 -131q54 -90 172 -90h541q133 0 188 172q41 121 41 266q0 225 -78 238q-35 0 -84 -39t-84 -39q-31 0 -80 41t-84 41q-49 -10 -49 -168q10 -107 70 -107q30 0 74 25q12 8 32 8q28 0 49 -27t21 -67
q0 -32 -20 -74q-27 -49 -99.5 -79.5t-154.5 -30.5q-77 0 -127 28q-101 50 -155 158.5t-54 243.5q0 99 20 172q63 258 328 258q48 0 137 -68t117 -68q20 0 119 69t168 71q136 0 199 -75.5t95 -219.5q29 -130 29 -275q0 -234 -78 -454q-50 -145 -150 -195.5t-259 -50.5h-729
q-30 0 -84 -2t-80 -2q-176 0 -271 86q-66 58 -86 136t-20 200v950v111q0 205 -62 274q-55 62 -140 100.5t-85 55.5z" />
    <glyph glyph-name="afii59763;" unicode="&#xe53;" horiz-adv-x="1966" 
d="M1040 508q86 -57 86 -180q0 -84 -36 -152q-100 -192 -377 -192q-250 9 -366 164t-122 458q0 292 126 482t354 190q79 0 142.5 -40.5t118.5 -96.5t66 -56q13 0 64 56t121 96.5t184 40.5q129 -4 220.5 -89.5t138 -226t46.5 -303.5q0 -280 -123 -495q-71 -131 -184.5 -216.5
t-232.5 -115.5q-34 -8 -49 -8q-39 0 -65 13.5t-26 31.5q0 10 13 16q70 46 158 225t112 414q8 82 8 127q0 335 -155 340q-43 0 -82.5 -32t-87.5 -84t-60 -52q-13 1 -59 53t-84 83.5t-82 31.5q-80 0 -132 -112t-52 -269q3 -180 56.5 -266t119.5 -86q50 0 69 45q9 16 9 45
q0 27 -29 50t-29 44q11 99 119 99q56 0 102 -33z" />
    <glyph glyph-name="afii59764;" unicode="&#xe54;" horiz-adv-x="1827" 
d="M1257 483q0 -165 173 -213q61 -8 143 -8q57 0 61 -37q0 -97 -51 -163.5t-137 -69.5q-49 0 -91 18.5t-97.5 53t-101.5 55t-95 20.5q-17 0 -57 -8q-27 -7 -120.5 -47t-187.5 -66t-200 -26q-148 8 -219.5 184.5t-71.5 425.5q6 452 266 602q113 70 356 70q47 0 136 -2t131 -2
q150 0 229 24q120 41 197 131.5t110.5 172t67.5 186.5t51 108q36 0 57 -55.5t21 -144.5q0 -201 -94 -393t-287 -250q-126 -36 -327 -40q-201 -5 -242 -10q-259 -28 -259 -393q0 -136 43.5 -229.5t100.5 -93.5q25 0 49 24q42 44 87.5 64.5l64.5 29.5q0 -3 -1 -3q-3 0 -24 53
q-25 63 -25 155q10 101 91.5 161t203.5 60q117 0 192 -66t75 -163q-13 -37 -111 -37q-88 0 -107 -78z" />
    <glyph glyph-name="afii59765;" unicode="&#xe55;" horiz-adv-x="1860" 
d="M1323 1294q125 31 202.5 118.5t111 174t65 194.5t47.5 111q36 0 57 -55.5t21 -144.5q0 -201 -94 -393t-287 -250q-126 -36 -327 -40q-201 -5 -242 -10q-259 -28 -259 -393q0 -136 43.5 -229.5t100.5 -93.5q25 0 49 24q42 44 87.5 64.5l64.5 29.5q0 -3 -1 -3q-3 0 -24 53
q-25 63 -25 155q10 101 91.5 161t203.5 60q117 0 192 -66t75 -163q-13 -37 -111 -37q-88 0 -107 -78q0 -165 173 -213q61 -8 143 -8q57 0 61 -37q0 -97 -51 -163.5t-137 -69.5q-49 0 -91 18.5t-97.5 53t-101.5 55t-95 20.5q-17 0 -57 -8q-27 -7 -120.5 -47t-187.5 -66
t-200 -26q-148 8 -219.5 184.5t-71.5 425.5q3 216 70.5 375t195.5 227q130 70 344 70q-94 47 -94 188q14 96 90 146.5t180 50.5q241 0 262 -172q0 -105 -38 -149t-64 -52q131 0 172 8z" />
    <glyph glyph-name="afii59766;" unicode="&#xe56;" horiz-adv-x="1798" 
d="M688 328q0 -111 295 -111q134 24 206.5 136.5t72.5 256.5q0 114 -43.5 210t-124.5 147q-125 77 -279 77q-105 0 -202 -33.5t-154 -84.5q-36 -29 -90 -29q-77 0 -82 94q0 213 -29 418q-26 167 -72 266.5t-95.5 163t-49.5 78.5q6 25 45 25q75 0 195.5 -95t193.5 -245
q65 -132 89.5 -285.5t25.5 -153.5q30 46 143 80.5t254 34.5q227 0 397 -102q139 -86 207 -231.5t68 -313.5q0 -161 -57 -291q-82 -193 -258.5 -271t-446.5 -85q-227 0 -401.5 82t-184.5 253q0 108 54 178t159 85q226 0 226 -144q-2 -31 -32 -52t-30 -58z" />
    <glyph glyph-name="afii59767;" unicode="&#xe57;" horiz-adv-x="2400" 
d="M1053 213q-33 -103 -132.5 -162t-236.5 -59q-451 5 -496 614q0 182 58.5 335t168 243t253.5 90q79 0 128.5 -25.5t86 -61.5t47.5 -36q15 0 55.5 34.5t90 59.5t132.5 29q135 0 237 -64.5t157.5 -175.5t60.5 -248q0 -134 -20 -231t-47 -175t-27 -89q36 0 88 45.5t95 156.5
t50 285q1 26 3 264q2 237 18.5 349.5t68.5 230.5q76 163 201.5 251.5t220.5 88.5q38 0 49 -16q0 -22 -52 -85.5t-92 -139.5t-56 -210q-13 -94 -13 -196q0 -65 6.5 -190.5t6.5 -211.5q0 -236 -57 -414.5t-222 -326.5q-109 -94 -280 -137t-330 -43q-144 0 -144 24
q3 19 44.5 81.5t73 158t38.5 260.5q0 453 -156 467q-44 0 -78.5 -39.5t-69 -98.5t-44.5 -59q-9 0 -41 56t-65 96t-78 45q-74 0 -125 -97.5t-51 -271.5q8 -178 63.5 -275t116.5 -97q47 0 65 57q0 41 -4 77t-4 46q0 38 53 70q25 12 50 12q58 0 104.5 -57t46.5 -144
q0 -46 -16 -90z" />
    <glyph glyph-name="afii59768;" unicode="&#xe58;" horiz-adv-x="1913" 
d="M1380 393q-7 37 -24 53.5t-48 34t-45 35.5t-14 57q0 53 37 105t123 63q147 0 229 -105t82 -259q-3 -150 -94 -263t-242 -122q-83 0 -144.5 43t-141 118.5t-107.5 75.5q-30 -1 -100 -76t-134 -120t-163 -45q-124 1 -212.5 83t-131.5 210.5t-45 267.5q0 539 254 663
q117 62 405 62q44 0 155 -2t193 -2q130 9 215 71.5t142 182.5q41 85 73.5 203.5t45 160t41.5 45.5q73 0 73 -196q0 -208 -53 -365q-52 -171 -133.5 -238t-235.5 -102q-61 -12 -143 -12q-43 0 -133 4t-133 4q-219 0 -279 -90q-74 -112 -74 -315q0 -118 27.5 -199.5
t75.5 -87.5q38 0 69.5 24t70.5 70t65.5 68t64.5 22q55 0 99 -32.5t94.5 -90.5t68.5 -73q26 -21 58 -21q69 7 69 90z" />
    <glyph glyph-name="afii59769;" unicode="&#xe59;" horiz-adv-x="1901" 
d="M836 348q-5 20 -17.5 29t-33.5 18t-30.5 21t-9.5 39q8 47 41 74.5t82 27.5q12 0 54 -8q71 -20 111 -88.5t40 -149.5q0 -59 -16 -98q-36 -111 -132.5 -166t-219.5 -55q-525 0 -525 680q18 310 179 456t395 146q180 -7 282.5 -108t134.5 -167q0 62 22 156.5t93 114.5
q53 0 80 -15t93.5 -55.5t96.5 -40.5q47 14 80.5 108.5t42.5 235.5q4 33 4 94q0 113 -18 227t-18 126q17 28 36 28q36 0 80 -87.5t74.5 -220.5t30.5 -261q0 -250 -62 -397.5t-172 -147.5q-20 1 -44 16t-60 42t-63.5 42t-53.5 15q-74 -13 -74 -201q0 -64 13 -135
q31 -166 115 -281t196 -161q16 -8 29 -8q26 0 51.5 28.5t34.5 28.5q10 0 16 -12q12 -19 12 -54q0 -72 -54.5 -132t-162.5 -60q-115 6 -221 119.5t-229 371.5l-114 261t-115 195t-148 77q-100 -11 -144.5 -133.5t-44.5 -276.5q0 -157 49.5 -262.5t143.5 -105.5q70 16 70 110z
" />
    <glyph glyph-name="afii59770;" unicode="&#xe5a;" horiz-adv-x="2519" 
d="M565 1343q0 -106 197 -106q240 0 348 119q56 58 76.5 105.5t41.5 113.5t38 67q167 0 263.5 -64t96.5 -177v-1073q0 -136 -93 -240t-239 -104q-51 7 -146 90.5t-95 146.5q7 30 53.5 40t60.5 26q54 54 54 164q0 17 -2 55t-2 59v582q-6 -6 -55.5 -46t-148 -77.5
t-251.5 -52.5q-207 0 -364.5 50t-209.5 150q-41 79 -41 156q0 137 114.5 228.5t295.5 91.5q101 -11 151 -54.5t50 -93.5q0 -36 -29 -65q-37 -25 -102 -25q-47 0 -62 -66zM1954 1597l409 -4v-1245q0 -88 -42 -167.5t-117.5 -128t-171.5 -48.5q-50 7 -146 90.5t-96 147.5
q7 30 54.5 40t60.5 25q53 53 53 164q0 18 -2 56t-2 59v1011z" />
    <glyph glyph-name="afii59771;" unicode="&#xe5b;" horiz-adv-x="3670" 
d="M918 -57q-176 0 -339.5 70t-276.5 201t-142 302q-21 106 -21 246q0 319 164 524t488 262q56 8 86 8q145 0 283 -56.5t200 -94.5l8 -225q-8 0 -57.5 27.5t-102.5 52t-140 46t-187 21.5q-66 0 -99 -4q-130 -14 -228.5 -101t-152 -218t-53.5 -271q0 -146 60.5 -273
t188.5 -205t316 -79q185 0 310.5 92t190.5 205t119 242t73 129q13 0 81.5 -107.5t112.5 -168t76 -64.5q22 0 52 42.5t81.5 129.5t82 129t54.5 43q43 0 134 -178t96 -178q12 0 88 113.5t120.5 174t69.5 60.5q34 0 128 -140t161.5 -217t157.5 -77q126 21 189.5 120t85.5 213
q20 104 20 112v1h188q-23 -95 -75.5 -255t-108.5 -216q-166 -160 -316 -160q-120 0 -214.5 80.5t-158.5 182.5q-61 97 -61 102v0q-47 -68 -133 -175.5t-137 -127.5q-29 0 -59 25.5t-67.5 77t-65 97l-58.5 95.5q-51 -75 -137.5 -187t-116.5 -112q-87 34 -221 249
q-9 0 -59 -104t-124.5 -205.5t-214 -185t-339.5 -90.5z" />
    <glyph glyph-name="f718;" unicode="&#xf718;" 
d="M-664 -1098q0 42 -22 64.5t-63.5 42.5t-61.5 37.5t-20 48.5q3 64 115.5 105.5t236.5 41.5q77 0 114 -16q68 -25 89.5 -77.5t21.5 -168.5v-192q0 -15 14.5 -35.5t14.5 -46.5q-4 -74 -238 -74q-233 0 -233 74q2 25 17 48t15 38v110z" />
    <glyph glyph-name="f719;" unicode="&#xf719;" 
d="M-946 -946v-98q0 -132 139 -132t139 115v78q0 23 -28.5 52.5t-28.5 66.5q9 82 229 82q128 0 185 -15t65 -63q0 -38 -22.5 -70.5t-22.5 -52.5v-119q0 -153 -144.5 -207.5t-383.5 -58.5q-236 0 -370 50.5t-134 195.5v57q0 59 -45 82l-59.5 23t-30.5 38q3 61 109.5 102.5
t226.5 41.5q86 0 123 -25q53 -33 53 -143z" />
    <glyph glyph-name="f71a;" unicode="&#xf71a;" 
d="M-520 -1130q-123 0 -194.5 58t-71.5 134t69.5 135t192.5 62q133 0 203.5 -54.5t70.5 -134.5q0 -83 -71 -141.5t-199 -58.5z" />
  </font>
</defs>
</svg>
