<?xml version="1.0" standalone="no"?>
<!DOCTYPE svg PUBLIC "-//W3C//DTD SVG 1.1//EN" "http://www.w3.org/Graphics/SVG/1.1/DTD/svg11.dtd" >
<svg>
<metadata>
Created by FontForge 20090622 at Tue May 14 11:48:58 2019
 By deploy user
&#194;&#169; 2015 Apple Inc. All rights reserved.
</metadata>
<defs>
<font id="SFUIText-Regular" horiz-adv-x="0" >
  <font-face 
    font-family="SF UI Text"
    font-weight="400"
    font-stretch="normal"
    units-per-em="2048"
    panose-1="0 0 5 0 0 0 0 0 0 0"
    ascent="1638"
    descent="-410"
    x-height="1078"
    cap-height="1443"
    bbox="-626 -573 2698 2173"
    underline-thickness="120"
    underline-position="-250"
    unicode-range="U+0020-U+FB02"
  />
<missing-glyph horiz-adv-x="2048" 
d="M100 -494v284h1848v-284h-1848zM100 -62v284h1848v-284h-1848zM100 370v284h1848v-284h-1848zM100 802v284h1848v-284h-1848zM100 1234v284h1848v-284h-1848zM100 1666v284h1848v-284h-1848z" />
    <glyph glyph-name=".notdef" horiz-adv-x="2048" 
d="M100 -494v284h1848v-284h-1848zM100 -62v284h1848v-284h-1848zM100 370v284h1848v-284h-1848zM100 802v284h1848v-284h-1848zM100 1234v284h1848v-284h-1848zM100 1666v284h1848v-284h-1848z" />
    <glyph glyph-name=".null" 
 />
    <glyph glyph-name="nonmarkingreturn" 
 />
    <glyph glyph-name="space" unicode=" " horiz-adv-x="578" 
 />
    <glyph glyph-name="exclam" unicode="!" horiz-adv-x="637" 
d="M218 1444h200l-17 -964h-166zM180 121q0 61 39 100.5t100 39.5t99.5 -39t38.5 -101q0 -61 -38.5 -100t-99.5 -39t-100 39t-39 100z" />
    <glyph glyph-name="quotedbl" unicode="&#x22;" horiz-adv-x="895" 
d="M339 904h-160v539h160v-539zM716 904h-160v539h160v-539z" />
    <glyph glyph-name="numbersign" unicode="#" horiz-adv-x="1296" 
d="M1195 901h-216l-70 -344h216l-29 -144h-216l-84 -413h-144l85 413h-307l-84 -413h-143l84 413h-216l31 144h216l69 344h-216l29 143h216l82 399h143l-81 -399h306l82 399h144l-83 -399h216zM528 903l-70 -349h309l71 349h-310z" />
    <glyph glyph-name="dollar" unicode="$" horiz-adv-x="1328" 
d="M732 -137h-134v134q-203 15 -325 123.5t-123 274.5h171q8 -100 81 -164t196 -79v520l-80 22q-161 43 -247 139t-86 234q0 163 111 268.5t302 124.5v140h134v-139q186 -16 300.5 -122.5t119.5 -269.5h-170q-3 94 -71.5 159t-178.5 78v-489l86 -21q185 -49 272.5 -143.5
t87.5 -244.5q0 -178 -117 -285.5t-329 -124.5v-135zM1005 394q0 100 -66 160.5t-207 90.5v-496q130 7 201.5 71t71.5 174zM357 1077q0 -89 61.5 -147.5t179.5 -83.5v460q-105 -6 -173 -70.5t-68 -158.5z" />
    <glyph glyph-name="percent" unicode="%" horiz-adv-x="1610" 
d="M1223 103q66 0 106.5 60.5t40.5 159.5q0 101 -39.5 160t-107.5 59q-67 0 -107.5 -59.5t-40.5 -159.5t40.5 -160t107.5 -60zM1223 -25q-135 0 -221.5 97.5t-86.5 250.5q0 152 86.5 249.5t221.5 97.5t221 -97t86 -250t-86 -250.5t-221 -97.5zM388 773q-135 0 -221.5 97.5
t-86.5 250.5q0 152 86.5 249.5t221.5 97.5t221 -97t86 -250t-86 -250.5t-221 -97.5zM372 0h-184l551 752l506 691h182l-560 -766zM388 901q66 0 106.5 60.5t40.5 159.5q0 101 -39.5 160t-107.5 59q-67 0 -107.5 -59.5t-40.5 -159.5t40.5 -160t107.5 -60z" />
    <glyph glyph-name="ampersand" unicode="&#x26;" horiz-adv-x="1457" 
d="M1203 0l-133 144q-93 -81 -214.5 -126t-252.5 -45q-215 0 -351.5 115t-136.5 297q0 252 286 403l56 28q-99 104 -140 181.5t-41 156.5q0 139 105 231t263 92q160 0 264 -91.5t104 -233.5q0 -111 -72.5 -198t-239.5 -175l361 -388q68 136 68 388v25h168v-26
q0 -325 -119 -509l251 -269h-226zM505 682q-210 -109 -210 -285q0 -122 89.5 -197t234.5 -75q99 0 192.5 36.5t152.5 98.5l-408 446q-11 -4 -51 -24zM603 881q132 67 186 127t54 138q0 84 -55 136t-143 52q-86 0 -141.5 -53t-55.5 -137q0 -60 35 -119t120 -144z" />
    <glyph glyph-name="quotesingle" unicode="'" horiz-adv-x="518" 
d="M339 904h-160v539h160v-539z" />
    <glyph glyph-name="parenleft" unicode="(" horiz-adv-x="728" 
d="M601 -277h-152q-129 161 -199.5 390.5t-70.5 486.5q0 256 66 454.5t214 387.5h145q-109 -128 -178.5 -364t-69.5 -478q0 -234 58.5 -443.5t186.5 -433.5z" />
    <glyph glyph-name="parenright" unicode=")" horiz-adv-x="728" 
d="M126 -277q128 224 186.5 433.5t58.5 443.5q0 244 -69 479.5t-178 362.5h146q148 -189 213.5 -387t65.5 -455q0 -256 -70.5 -485t-199.5 -392h-153z" />
    <glyph glyph-name="asterisk" unicode="*" horiz-adv-x="1054" 
d="M631 1062l259 -131l-67 -116l-244 158l16 -289h-136l16 290l-244 -159l-67 116l260 131l-260 132l67 118l244 -163l-16 294h136l-16 -294l244 163l67 -118z" />
    <glyph glyph-name="plus" unicode="+" horiz-adv-x="1328" 
d="M738 506v-435h-148v435h-435v148h435v435h148v-435h435v-148h-435z" />
    <glyph glyph-name="comma" unicode="," horiz-adv-x="608" 
d="M285 -367h-150l96 569h202z" />
    <glyph glyph-name="hyphen" unicode="-" horiz-adv-x="966" 
d="M811 499h-656v163h656v-163z" />
    <glyph glyph-name="hyphen" unicode="&#x2011;" horiz-adv-x="966" 
d="M811 499h-656v163h656v-163z" />
    <glyph glyph-name="period" unicode="." horiz-adv-x="608" 
d="M304 -10q-53 0 -91.5 38.5t-38.5 91.5q0 54 38.5 92t91.5 38q54 0 92 -38t38 -92q0 -53 -38 -91.5t-92 -38.5z" />
    <glyph glyph-name="slash" unicode="/" horiz-adv-x="712" 
d="M210 -325h-150l440 1768h152z" />
    <glyph glyph-name="zero" unicode="0" horiz-adv-x="1290" 
d="M646 -34q-244 0 -378 198t-134 558q0 357 135 556t377 199q241 0 375.5 -200t134.5 -558q0 -359 -133.5 -556t-376.5 -197zM646 123q160 0 244.5 154.5t84.5 444.5q0 287 -85.5 442t-243.5 155t-244.5 -155.5t-86.5 -441.5q0 -289 85.5 -444t245.5 -155z" />
    <glyph glyph-name="one" unicode="1" horiz-adv-x="955" 
d="M506 0v1243h-16l-367 -266v190l384 276h179v-1443h-180z" />
    <glyph glyph-name="two" unicode="2" horiz-adv-x="1237" 
d="M152 1037q0 192 130.5 316t331.5 124q194 0 325.5 -116.5t131.5 -288.5q0 -113 -64 -222t-241 -299l-347 -373v-16h676v-162h-934v124l499 545q139 151 185 230t46 166q0 108 -81.5 181.5t-200.5 73.5q-127 0 -205 -78t-78 -205v-1h-174v1z" />
    <glyph glyph-name="three" unicode="3" horiz-adv-x="1284" 
d="M456 665v154h175q123 0 201.5 72t78.5 184q0 110 -76 177.5t-201 67.5t-202 -65.5t-88 -181.5h-175q14 188 140 296t332 108q124 0 228.5 -50.5t164.5 -137.5t60 -190q0 -129 -67 -218t-186 -118v-16q147 -19 231 -114.5t84 -243.5q0 -178 -147 -300.5t-361 -122.5
q-220 0 -359 112.5t-149 297.5h174q12 -115 102 -184t230 -69q142 0 233.5 76t91.5 195q0 125 -89 198t-243 73h-183z" />
    <glyph glyph-name="four" unicode="4" horiz-adv-x="1318" 
d="M820 0v299h-703v164q198 352 618 980h261v-983h205v-161h-205v-299h-176zM301 471v-12h520v817h-12q-234 -340 -508 -805z" />
    <glyph glyph-name="five" unicode="5" horiz-adv-x="1267" 
d="M637 -34q-205 0 -339 115.5t-146 302.5h177q12 -117 97.5 -188.5t212.5 -71.5q145 0 233.5 91t88.5 239t-88.5 240.5t-230.5 92.5q-98 0 -176 -42.5t-122 -119.5h-169l79 818h805v-161h-664l-41 -463h16q105 123 305 123q206 0 336 -135t130 -348q0 -220 -140 -356.5
t-364 -136.5z" />
    <glyph glyph-name="six" unicode="6" horiz-adv-x="1305" 
d="M671 -33q-163 0 -284 84.5t-189 243.5q-70 164 -70 402q0 372 145 576t410 204q184 0 311.5 -101.5t161.5 -275.5h-185q-29 101 -106.5 159t-183.5 58q-176 0 -273.5 -152t-104.5 -440h16q53 105 154 163.5t230 58.5q206 0 340 -136.5t134 -346.5q0 -218 -142 -357.5
t-364 -139.5zM669 125q139 0 232.5 95.5t93.5 237.5q0 148 -90.5 240.5t-233.5 92.5t-235.5 -92t-92.5 -235q0 -145 93.5 -242t232.5 -97z" />
    <glyph glyph-name="seven" unicode="7" horiz-adv-x="1167" 
d="M221 0l648 1268v14h-772v161h955v-167l-642 -1276h-189z" />
    <glyph glyph-name="eight" unicode="8" horiz-adv-x="1308" 
d="M654 -34q-229 0 -374.5 117.5t-145.5 302.5q0 141 82 242t218 126v16q-110 30 -175.5 117t-65.5 205q0 169 129.5 277t331.5 108t331.5 -108t129.5 -277q0 -119 -64.5 -205t-176.5 -117v-16q136 -25 218 -126t82 -242q0 -185 -145.5 -302.5t-374.5 -117.5zM654 120
q150 0 244 77.5t94 201.5t-94 201.5t-244 77.5t-244 -77.5t-94 -201.5t94 -201.5t244 -77.5zM654 830q128 0 206 67.5t78 177.5q0 112 -78 180t-206 68t-206 -68t-78 -180q0 -110 78 -177.5t206 -67.5z" />
    <glyph glyph-name="nine" unicode="9" horiz-adv-x="1305" 
d="M622 -33q-184 0 -311.5 101.5t-161.5 275.5h185q29 -101 106.5 -159t183.5 -58q176 0 273.5 152t104.5 440h-8h-4h-4q-53 -105 -154 -163.5t-230 -58.5q-206 0 -340 136.5t-134 346.5q0 218 142 357.5t364 139.5q162 0 284 -84t189 -244q70 -164 70 -402
q0 -372 -145 -576t-410 -204zM634 653q143 0 235.5 92t92.5 235q0 145 -93.5 242t-232.5 97t-232.5 -95.5t-93.5 -237.5q0 -148 90.5 -240.5t233.5 -92.5z" />
    <glyph glyph-name="colon" unicode=":" horiz-adv-x="608" 
d="M304 -10q-53 0 -91.5 38.5t-38.5 91.5q0 54 38.5 92t91.5 38q54 0 92 -38t38 -92q0 -53 -38 -91.5t-92 -38.5zM304 759q-53 0 -91.5 38.5t-38.5 91.5q0 54 38.5 92t91.5 38q54 0 92 -38t38 -92q0 -53 -38 -91.5t-92 -38.5z" />
    <glyph glyph-name="semicolon" unicode=";" horiz-adv-x="608" 
d="M260 -367h-150l96 569h202zM304 759q-53 0 -91.5 38.5t-38.5 91.5q0 54 38.5 92t91.5 38q54 0 92 -38t38 -92q0 -53 -38 -91.5t-92 -38.5z" />
    <glyph glyph-name="less" unicode="&#x3c;" horiz-adv-x="1328" 
d="M1104 203v-186l-880 509v142l880 509v-186l-708 -386v-16z" />
    <glyph glyph-name="equal" unicode="=" horiz-adv-x="1328" 
d="M1168 312h-1008v149h1008v-149zM1168 700h-1008v149h1008v-149z" />
    <glyph glyph-name="greater" unicode="&#x3e;" horiz-adv-x="1328" 
d="M224 203l708 386v16l-708 386v186l880 -509v-142l-880 -509v186z" />
    <glyph glyph-name="question" unicode="?" horiz-adv-x="1050" 
d="M80 1066q9 171 121.5 279.5t314.5 108.5q187 0 305.5 -103t118.5 -259q0 -219 -209 -345q-94 -56 -128.5 -106t-34.5 -130v-65h-175v92q-1 98 47.5 170t152.5 134q88 54 124.5 108t36.5 133q0 94 -67.5 154.5t-177.5 60.5q-113 0 -181.5 -62t-76.5 -170h-171zM494 -18
q-61 0 -100 39t-39 100t39 100.5t100 39.5t99.5 -39t38.5 -101q0 -61 -38.5 -100t-99.5 -39z" />
    <glyph glyph-name="at" unicode="@" horiz-adv-x="1880" 
d="M934 875q-100 0 -156.5 -74t-56.5 -205q0 -130 56.5 -205t154.5 -75q103 0 164 76t61 204t-60.5 203.5t-162.5 75.5zM969 1435q234 0 416.5 -93t284 -260.5t101.5 -382.5q0 -245 -102 -389t-274 -144q-88 0 -149.5 47t-70.5 121h-16q-32 -76 -97 -117.5t-153 -41.5
q-156 0 -252 117t-96 308q0 182 97 297.5t251 115.5q79 0 142 -38t92 -103h16v122h151v-587q0 -53 29.5 -82t83.5 -29q94 0 150.5 110t56.5 295q0 179 -84.5 317t-238 214.5t-351.5 76.5q-193 0 -346.5 -91t-239.5 -254.5t-86 -368.5q0 -320 191.5 -511t512.5 -191
q103 0 195.5 13t139.5 35v-126q-142 -49 -337 -49q-387 0 -615 226t-228 609q0 183 60.5 338.5t168.5 264.5t261.5 170t335.5 61z" />
    <glyph glyph-name="A" unicode="A" horiz-adv-x="1380" 
d="M1122 0l-145 413h-574l-145 -413h-189l532 1443h178l532 -1443h-189zM682 1210l-226 -644h468l-226 644h-16z" />
    <glyph glyph-name="B" unicode="B" horiz-adv-x="1346" 
d="M747 0h-563v1443h552q198 0 312.5 -97t114.5 -263q0 -112 -72.5 -202t-176.5 -109v-16q148 -19 235 -113.5t87 -237.5q0 -191 -129.5 -298t-359.5 -107zM364 1284v-463h288q329 0 329 231q0 110 -74.5 171t-208.5 61h-334zM364 159h356q163 0 247 65t84 190
q0 252 -348 252h-339v-507z" />
    <glyph glyph-name="C" unicode="C" horiz-adv-x="1466" 
d="M765 -34q-294 0 -465.5 203t-171.5 552t171 552.5t465 203.5q228 0 390 -130t194 -339h-183q-36 140 -144 221.5t-257 81.5q-208 0 -329.5 -159t-121.5 -431t122 -430.5t330 -158.5q151 0 258.5 72.5t141.5 197.5h183q-36 -199 -194.5 -317.5t-388.5 -118.5z" />
    <glyph glyph-name="D" unicode="D" horiz-adv-x="1487" 
d="M184 1443h495q321 0 501 -190.5t180 -530.5q0 -341 -179.5 -531.5t-501.5 -190.5h-495v1443zM364 1281v-1119h303q241 0 375 147t134 411q0 265 -134.5 413t-374.5 148h-303z" />
    <glyph glyph-name="E" unicode="E" horiz-adv-x="1220" 
d="M1078 162v-162h-894v1443h894v-162h-714v-463h677v-160h-677v-496h714z" />
    <glyph glyph-name="F" unicode="F" horiz-adv-x="1172" 
d="M364 0h-180v1443h876v-162h-696v-496h639v-160h-639v-625z" />
    <glyph glyph-name="G" unicode="G" horiz-adv-x="1529" 
d="M1395 558q0 -267 -168 -429.5t-445 -162.5q-299 0 -476.5 205t-177.5 551q0 342 179 548.5t475 206.5q240 0 402.5 -125t201.5 -339h-183q-47 146 -154 222t-267 76q-214 0 -341.5 -160t-127.5 -429q0 -273 126.5 -431.5t343.5 -158.5q194 0 313.5 113t119.5 296v35h-406
v158h585v-176z" />
    <glyph glyph-name="H" unicode="H" horiz-adv-x="1520" 
d="M1336 0h-180v657h-792v-657h-180v1443h180v-624h792v624h180v-1443z" />
    <glyph glyph-name="I" unicode="I" horiz-adv-x="548" 
d="M364 0h-180v1443h180v-1443z" />
    <glyph glyph-name="J" unicode="J" horiz-adv-x="1102" 
d="M86 337h179q3 -91 67 -148t165 -57q116 0 178.5 69.5t62.5 201.5v1040h180v-1041q0 -206 -112 -321t-308 -115q-182 0 -297 103t-115 268z" />
    <glyph glyph-name="K" unicode="K" horiz-adv-x="1349" 
d="M364 0h-180v1443h180v-701h16l632 701h226l-577 -623l630 -820h-233l-521 695l-173 -191v-504z" />
    <glyph glyph-name="L" unicode="L" horiz-adv-x="1163" 
d="M1060 162v-162h-876v1443h180v-1281h696z" />
    <glyph glyph-name="M" unicode="M" horiz-adv-x="1790" 
d="M352 0h-168v1443h209l494 -1194h16l494 1194h209v-1443h-168v1102h-12l-455 -1092h-152l-455 1092h-12v-1102z" />
    <glyph glyph-name="N" unicode="N" horiz-adv-x="1520" 
d="M362 0h-178v1443h175l783 -1123h16v1123h178v-1443h-175l-783 1119h-16v-1119z" />
    <glyph glyph-name="O" unicode="O" horiz-adv-x="1579" 
d="M791 1477q307 0 483.5 -203.5t176.5 -551.5t-176.5 -552t-483.5 -204q-309 0 -486 204t-177 552t178.5 551.5t484.5 203.5zM791 1311q-220 0 -349 -159t-129 -430t127.5 -430.5t350.5 -159.5q221 0 348 160t127 430q0 272 -127 430.5t-348 158.5z" />
    <glyph glyph-name="P" unicode="P" horiz-adv-x="1301" 
d="M184 1443h545q205 0 333.5 -130.5t128.5 -336.5q0 -202 -130.5 -331.5t-333.5 -129.5h-363v-515h-180v1443zM364 1283v-608h318q154 0 239 79t85 222q0 149 -83.5 228t-240.5 79h-318z" />
    <glyph glyph-name="Q" unicode="Q" horiz-adv-x="1579" 
d="M1378 -163h-202l-127 173q-117 -44 -258 -44q-308 0 -485.5 202t-177.5 553q0 349 178.5 552.5t484.5 203.5q304 0 482 -203.5t178 -552.5q0 -215 -66.5 -378t-189.5 -252zM792 132q81 0 154 22l-191 259h204l131 -174q85 68 130.5 192.5t45.5 289.5q0 272 -128 431
t-347 159q-221 0 -349.5 -159t-128.5 -431q0 -273 128.5 -431t350.5 -158z" />
    <glyph glyph-name="R" unicode="R" horiz-adv-x="1338" 
d="M364 1283v-552h355q139 0 214.5 71.5t75.5 204.5q0 130 -79 203t-219 73h-347zM364 571v-571h-180v1443h551q209 0 334.5 -117.5t125.5 -312.5q0 -151 -77 -261t-213 -153l334 -599h-211l-309 571h-355z" />
    <glyph glyph-name="S" unicode="S" horiz-adv-x="1305" 
d="M115 377h182q17 -113 117 -180t254 -67q146 0 241.5 70.5t95.5 177.5q0 92 -70 152.5t-219 98.5l-185 48q-196 49 -285 142t-89 247q0 184 140.5 297.5t369.5 113.5q209 0 350 -112t152 -287h-181q-19 111 -105.5 173.5t-221.5 62.5q-144 0 -231.5 -66.5t-87.5 -175.5
q0 -85 64.5 -138t213.5 -91l151 -40q224 -56 321.5 -150t97.5 -253q0 -199 -146 -316.5t-393 -117.5q-229 0 -375.5 112t-160.5 299z" />
    <glyph glyph-name="T" unicode="T" horiz-adv-x="1298" 
d="M739 0h-180v1281h-465v162h1110v-162h-465v-1281z" />
    <glyph glyph-name="U" unicode="U" horiz-adv-x="1524" 
d="M369 1443v-935q0 -167 104.5 -271.5t288.5 -104.5t288.5 104.5t104.5 271.5v935h180v-947q0 -235 -154.5 -382.5t-418.5 -147.5t-418.5 147.5t-154.5 382.5v947h180z" />
    <glyph glyph-name="V" unicode="V" horiz-adv-x="1380" 
d="M779 0h-178l-532 1443h189l424 -1210h16l424 1210h189z" />
    <glyph glyph-name="W" unicode="W" horiz-adv-x="1982" 
d="M985 1139l-332 -1139h-170l-393 1443h188l287 -1173h12l323 1173h182l323 -1173h12l287 1173h188l-393 -1443h-170l-332 1139h-12z" />
    <glyph glyph-name="X" unicode="X" horiz-adv-x="1390" 
d="M90 0l494 726l-488 717h217l380 -574h16l386 574h205l-500 -725l489 -718h-216l-378 569h-16l-385 -569h-204z" />
    <glyph glyph-name="Y" unicode="Y" horiz-adv-x="1344" 
d="M762 0h-180v621l-512 822h205l389 -641h16l389 641h205l-512 -822v-621z" />
    <glyph glyph-name="Z" unicode="Z" horiz-adv-x="1355" 
d="M144 0v128l817 1137v16h-789v162h1022v-128l-813 -1137v-16h830v-162h-1067z" />
    <glyph glyph-name="bracketleft" unicode="[" horiz-adv-x="757" 
d="M179 1444h452v-136h-284v-1413h296v-135h-464v1684z" />
    <glyph glyph-name="backslash" unicode="\" horiz-adv-x="712" 
d="M502 -325l-442 1768h152l440 -1768h-150z" />
    <glyph glyph-name="bracketright" unicode="]" horiz-adv-x="757" 
d="M578 1444v-1684h-464v135h297v1413h-284v136h451z" />
    <glyph glyph-name="asciicircum" unicode="^" horiz-adv-x="984" 
d="M484 1280l-220 -500h-163l296 639h190l296 -639h-163l-220 500h-16z" />
    <glyph glyph-name="underscore" unicode="_" horiz-adv-x="916" 
d="M926 -235h-936v128h936v-128z" />
    <glyph glyph-name="grave" unicode="`" horiz-adv-x="1093" 
d="M782 1263h-194l-278 338h220z" />
    <glyph glyph-name="a" unicode="a" horiz-adv-x="1130" 
d="M494 132q133 0 220.5 77t87.5 193v99l-290 -19q-122 -8 -179 -51t-57 -125q0 -81 61 -127.5t157 -46.5zM462 -19q-159 0 -261.5 87.5t-102.5 233.5q0 144 102 226t291 93l311 19v98q0 100 -62 153t-182 53q-97 0 -161 -35t-82 -99h-174q17 129 133.5 208t289.5 79
q196 0 303 -95t107 -264v-738h-164v159h-16q-52 -86 -138 -132t-194 -46z" />
    <glyph glyph-name="b" unicode="b" horiz-adv-x="1258" 
d="M698 -19q-112 0 -203.5 50.5t-142.5 140.5h-16v-172h-164v1506h172v-598h16q44 87 135.5 138t202.5 51q206 0 329 -152t123 -406q0 -253 -123.5 -405.5t-328.5 -152.5zM658 942q-147 0 -232.5 -108t-85.5 -295t85.5 -295t232.5 -108q148 0 231 107t83 296t-83 296
t-231 107z" />
    <glyph glyph-name="c" unicode="c" horiz-adv-x="1146" 
d="M1054 748h-174q-22 85 -94.5 139.5t-183.5 54.5q-145 0 -230.5 -108t-85.5 -291q0 -186 86 -296.5t230 -110.5q109 0 181.5 49t96.5 140h174q-24 -153 -143 -248.5t-308 -95.5q-227 0 -361 152.5t-134 409.5q0 252 134 403t360 151q189 0 308.5 -99t143.5 -250z" />
    <glyph glyph-name="d" unicode="d" horiz-adv-x="1258" 
d="M561 -19q-207 0 -330 152t-123 406q0 253 123.5 405.5t329.5 152.5q113 0 202.5 -50.5t135.5 -138.5h15v598h172v-1506h-164v172h-16q-51 -90 -142 -140.5t-203 -50.5zM601 942q-147 0 -231 -107.5t-84 -295.5q0 -189 83.5 -296t231.5 -107q147 0 232 108t85 295
q0 185 -85.5 294t-231.5 109z" />
    <glyph glyph-name="e" unicode="e" horiz-adv-x="1170" 
d="M592 945q-129 0 -212 -87t-93 -230h594q-3 143 -82 230t-207 87zM876 279h172q-39 -140 -158.5 -219t-295.5 -79q-224 0 -355 150.5t-131 406.5q0 255 132 407t354 152q218 0 343 -145t125 -397v-66h-775v-8q7 -160 90.5 -254t220.5 -94q209 0 278 146z" />
    <glyph glyph-name="f" unicode="f" horiz-adv-x="741" 
d="M234 0v934h-179v144h179v105q0 162 81.5 237.5t241.5 75.5q46 0 106 -10v-144q-41 9 -96 9q-161 0 -161 -173v-100h247v-144h-247v-934h-172z" />
    <glyph glyph-name="g" unicode="g" horiz-adv-x="1248" 
d="M918 555q0 177 -86 282t-234 105t-230 -104t-82 -283t82 -283t230 -104q149 0 234.5 105t85.5 282zM606 -414q-193 0 -312.5 80t-139.5 215h182q14 -67 85 -106t185 -39q145 0 226.5 67.5t81.5 186.5v212h-16q-51 -89 -139 -137.5t-199 -48.5q-208 0 -330 147.5
t-122 391.5t123 393t329 149q113 0 206 -51.5t140 -138.5h16v171h164v-1097q0 -181 -130 -288t-350 -107z" />
    <glyph glyph-name="h" unicode="h" horiz-adv-x="1216" 
d="M172 0v1506h172v-598h16q41 91 125.5 140t206.5 49q172 0 272 -105.5t100 -293.5v-698h-172v656q0 286 -249 286q-142 0 -220.5 -82.5t-78.5 -221.5v-638h-172z" />
    <glyph glyph-name="i" unicode="i" horiz-adv-x="504" 
d="M166 0v1078h172v-1078h-172zM252 1297q-50 0 -85 35.5t-35 84.5t35 84.5t85 35.5t85 -35.5t35 -84.5t-35 -84.5t-85 -35.5z" />
    <glyph glyph-name="j" unicode="j" horiz-adv-x="504" 
d="M338 1078v-1131q0 -166 -80 -241.5t-250 -75.5h-30v147h26q90 0 126 38t36 129v1134h172zM252 1297q-50 0 -85 35.5t-35 84.5t35 84.5t85 35.5t85 -35.5t35 -84.5t-35 -84.5t-85 -35.5z" />
    <glyph glyph-name="k" unicode="k" horiz-adv-x="1112" 
d="M360 607l468 471h211l-464 -462l495 -616h-219l-404 505l-103 -96v-409h-172v1506h172v-899h16z" />
    <glyph glyph-name="l" unicode="l" horiz-adv-x="516" 
d="M172 0v1506h172v-1506h-172z" />
    <glyph glyph-name="m" unicode="m" horiz-adv-x="1782" 
d="M162 0v1078h164v-170h16q37 90 115 139.5t186 49.5q106 0 182.5 -51t115.5 -138h16q44 87 132 138t198 51q165 0 254 -91.5t89 -260.5v-745h-172v705q0 237 -227 237q-110 0 -180 -72t-70 -177v-693h-172v732q0 96 -61.5 153t-163.5 57q-105 0 -177.5 -80t-72.5 -194
v-668h-172z" />
    <glyph glyph-name="n" unicode="n" horiz-adv-x="1195" 
d="M162 0v1078h164v-170h16q86 189 324 189q181 0 279 -103.5t98 -295.5v-698h-172v656q0 145 -62.5 215.5t-191.5 70.5q-130 0 -206.5 -81.5t-76.5 -222.5v-638h-172z" />
    <glyph glyph-name="o" unicode="o" horiz-adv-x="1210" 
d="M605 136q153 0 236 105.5t83 297.5t-83 297.5t-236 105.5t-236 -105.5t-83 -297.5t83 -297.5t236 -105.5zM605 -19q-230 0 -363.5 149.5t-133.5 408.5q0 260 133 409t364 149t364 -149t133 -409q0 -259 -133.5 -408.5t-363.5 -149.5z" />
    <glyph glyph-name="p" unicode="p" horiz-adv-x="1248" 
d="M687 1097q206 0 329.5 -152t123.5 -406q0 -253 -124 -405.5t-329 -152.5q-115 0 -204 47.5t-133 133.5h-16v-522h-172v1438h164v-180h16q52 93 143.5 146t201.5 53zM646 136q148 0 232 107t84 296t-83.5 296t-231.5 107q-146 0 -232 -108.5t-86 -294.5q0 -185 85.5 -294
t231.5 -109z" />
    <glyph glyph-name="q" unicode="q" horiz-adv-x="1248" 
d="M559 1097q110 0 203.5 -54t141.5 -145h16v180h166v-1438h-174v522h-16q-106 -181 -337 -181q-206 0 -328.5 151.5t-122.5 406.5q0 253 123 405.5t328 152.5zM598 136q148 0 233.5 108.5t85.5 294.5q0 185 -86 294t-232 109q-147 0 -230 -107t-83 -296q0 -190 82.5 -296.5
t229.5 -106.5z" />
    <glyph glyph-name="r" unicode="r" horiz-adv-x="780" 
d="M162 0v1078h164v-160h16q24 79 108 129t191 50q49 0 86 -5v-172q-35 10 -110 10q-123 0 -203 -74t-80 -188v-668h-172z" />
    <glyph glyph-name="s" unicode="s" horiz-adv-x="1072" 
d="M137 783q0 134 115 224t287 90q169 0 279 -78t127 -211h-170q-18 66 -79.5 104.5t-157.5 38.5q-97 0 -162.5 -45t-65.5 -116q0 -55 45.5 -91.5t141.5 -59.5l166 -40q154 -37 227.5 -107t73.5 -185q0 -143 -123 -234.5t-309 -91.5q-180 0 -295 80t-129 214h177
q22 -70 87 -109.5t166 -39.5q109 0 179 47t70 121q0 110 -171 152l-185 45q-153 37 -223.5 106.5t-70.5 185.5z" />
    <glyph glyph-name="t" unicode="t" horiz-adv-x="744" 
d="M234 1357h172v-279h240v-144h-240v-610q0 -95 38 -138t122 -43q37 0 80 4v-145q-57 -10 -101 -10q-167 0 -239 67t-72 221v654h-174v144h174v279z" />
    <glyph glyph-name="u" unicode="u" horiz-adv-x="1196" 
d="M1034 1078v-1078h-164v169h-16q-41 -91 -126 -139.5t-208 -48.5q-180 0 -274 103t-94 296v698h172v-656q0 -147 58 -215.5t186 -68.5q141 0 217.5 79.5t76.5 222.5v638h172z" />
    <glyph glyph-name="v" unicode="v" horiz-adv-x="1110" 
d="M68 1078h184l295 -888h16l295 888h184l-399 -1078h-176z" />
    <glyph glyph-name="w" unicode="w" horiz-adv-x="1586" 
d="M1518 1078l-302 -1078h-175l-241 834h-16l-240 -834h-174l-302 1078h174l212 -862h16l241 862h165l241 -862h16l212 862h173z" />
    <glyph glyph-name="x" unicode="x" horiz-adv-x="1076" 
d="M544 407h-16l-256 -407h-195l369 539l-373 539h205l256 -401h16l253 401h195l-366 -532l371 -546h-204z" />
    <glyph glyph-name="y" unicode="y" horiz-adv-x="1112" 
d="M254 -390q-41 0 -77 6v147q26 -5 72 -5q75 0 119.5 40t78.5 137l20 64l-399 1079h186l296 -887h16l295 887h183l-421 -1144q-69 -187 -147 -255.5t-222 -68.5z" />
    <glyph glyph-name="z" unicode="z" horiz-adv-x="1104" 
d="M137 0v126l622 792v16h-621v144h826v-129l-619 -789v-16h622v-144h-830z" />
    <glyph glyph-name="braceleft" unicode="{" horiz-adv-x="824" 
d="M287 606q179 -17 179 -241v-334q0 -119 54.5 -171.5t179.5 -52.5h45v-141h-60q-194 0 -288.5 87t-94.5 266v289q0 118 -39 164.5t-139 46.5v191q100 0 139 47t39 166v255q0 175 94 259.5t289 84.5h60v-141h-45q-125 0 -179.5 -52t-54.5 -173v-296q0 -220 -179 -238v-16z
" />
    <glyph glyph-name="bar" unicode="|" horiz-adv-x="676" 
d="M412 -326h-148v1769h148v-1769z" />
    <glyph glyph-name="braceright" unicode="}" horiz-adv-x="824" 
d="M537 606v16q-179 18 -179 238v296q0 121 -54.5 173t-179.5 52h-45v141h60q195 0 289 -84.5t94 -259.5v-255q0 -119 39 -166t139 -47v-191q-100 0 -139 -46.5t-39 -164.5v-289q0 -179 -94.5 -266t-288.5 -87h-60v141h45q125 0 179.5 52.5t54.5 171.5v334q0 224 179 241z
" />
    <glyph glyph-name="asciitilde" unicode="~" horiz-adv-x="1202" 
d="M557 636q-55 56 -90.5 78.5t-69.5 22.5q-130 0 -141 -179h-160q-1 160 81 252t224 92q64 0 122.5 -30t123.5 -95q52 -55 88 -77.5t70 -22.5q131 0 142 179h159q1 -160 -80.5 -252t-223.5 -92q-64 0 -122 29.5t-123 94.5z" />
    <glyph glyph-name="nonbreakingspace" unicode="&#xa0;" horiz-adv-x="578" 
 />
    <glyph glyph-name="exclamdown" unicode="&#xa1;" horiz-adv-x="637" 
d="M218 -342l17 964h166l17 -964h-200zM180 981q0 61 39 100t100 39t99.5 -39t38.5 -100q0 -62 -38.5 -101t-99.5 -39t-100 39.5t-39 100.5z" />
    <glyph glyph-name="cent" unicode="&#xa2;" horiz-adv-x="1328" 
d="M1167 508q-22 -140 -129.5 -230t-269.5 -109v-169h-172v171q-195 30 -315 178.5t-120 375.5q0 224 120 371t315 176v171h172v-169q159 -21 268.5 -113.5t130.5 -230.5h-174q-31 92 -112 143t-196 51q-149 0 -247.5 -110t-98.5 -289q0 -182 99 -294t247 -112q126 0 205 49
t103 140h174z" />
    <glyph glyph-name="sterling" unicode="&#xa3;" horiz-adv-x="1328" 
d="M1190 154v-154h-1062v152q133 30 220.5 129.5t87.5 219.5q0 72 -22 152h-286v144h236q-21 53 -32 85.5t-21 82.5t-10 95q0 196 137.5 306.5t379.5 110.5q158 0 300 -43v-160q-132 44 -291 44q-161 0 -251.5 -67.5t-90.5 -186.5q0 -111 59 -267h472v-144h-423
q20 -75 20 -145q0 -101 -52 -191.5t-142 -146.5v-16h771z" />
    <glyph glyph-name="currency" unicode="&#xa4;" horiz-adv-x="1328" 
d="M401 656q0 -109 77.5 -186.5t186.5 -77.5t186.5 77.5t77.5 186.5t-77.5 186.5t-186.5 77.5t-186.5 -77.5t-77.5 -186.5zM1157 1043l-168 -169q67 -99 67 -218q0 -121 -68 -219l169 -169l-106 -106l-169 169q-97 -66 -217 -66q-119 0 -219 67l-169 -170l-106 106l170 170
q-67 100 -67 218t67 217l-170 170l106 106l169 -169q101 67 219 67q119 0 218 -67l168 169z" />
    <glyph glyph-name="yen" unicode="&#xa5;" horiz-adv-x="1328" 
d="M1031 269h-277v-269h-180v269h-277v136h277v166h-277v136h223l-458 736h205l389 -641h16l389 641h205l-458 -736h223v-136h-277v-166h277v-136z" />
    <glyph glyph-name="brokenbar" unicode="&#xa6;" horiz-adv-x="676" 
d="M412 774h-148v669h148v-669zM412 -326h-148v669h148v-669z" />
    <glyph glyph-name="section" unicode="&#xa7;" horiz-adv-x="1032" 
d="M451 400l83 -18q92 0 155 55t63 136q0 63 -44 106t-126 61l-83 18q-91 0 -155 -56t-64 -135q0 -62 44.5 -105.5t126.5 -61.5zM521 -257q-172 0 -285.5 83t-123.5 216h176q10 -69 77 -111t165 -42q102 0 165.5 44t63.5 114q0 56 -47 94t-151 66l-141 38
q-164 44 -240.5 113.5t-76.5 174.5q0 95 58.5 164t164.5 98v16q-219 85 -219 273q0 140 111 226.5t290 86.5q167 0 274 -78t124 -211h-173q-11 65 -73 104t-156 39q-101 0 -162.5 -43.5t-61.5 -113.5q0 -57 46 -95t149 -66l141 -38q162 -43 237.5 -111t75.5 -169
q0 -103 -71 -182t-183 -101v-16q254 -57 254 -257q0 -139 -114.5 -227.5t-293.5 -88.5z" />
    <glyph glyph-name="dieresis" unicode="&#xa8;" horiz-adv-x="1092" 
d="M344 1263q-50 0 -85.5 35.5t-35.5 85.5t35.5 85.5t85.5 35.5t85.5 -35.5t35.5 -85.5t-35.5 -85.5t-85.5 -35.5zM748 1263q-50 0 -85.5 35.5t-35.5 85.5t35.5 85.5t85.5 35.5t85.5 -35.5t35.5 -85.5t-35.5 -85.5t-85.5 -35.5z" />
    <glyph glyph-name="copyright" unicode="&#xa9;" horiz-adv-x="1742" 
d="M871 -168q-165 0 -312.5 61.5t-252.5 167t-166.5 252.5t-61.5 313q0 222 104 404t286 286t403 104q166 0 313.5 -61t252.5 -166.5t166 -253t61 -313.5q0 -222 -104 -404t-286 -286t-403 -104zM871 -28q137 0 258 50.5t207.5 137t136.5 208t50 258.5q0 183 -85 333
t-234.5 235.5t-332.5 85.5q-137 0 -258 -50.5t-207.5 -137t-136.5 -208t-50 -258.5t50.5 -258t137 -208t207.5 -137.5t257 -50.5zM1249 768h-139q-18 71 -78.5 113.5t-143.5 42.5q-116 0 -184.5 -80t-68.5 -216q0 -138 68.5 -219t184.5 -81q88 0 146 39.5t76 111.5h139
q-19 -126 -116.5 -200.5t-243.5 -74.5q-181 0 -288.5 115t-107.5 309q0 192 107 306t288 114q143 0 242 -77t119 -203z" />
    <glyph glyph-name="ordfeminine" unicode="&#xaa;" horiz-adv-x="942" 
d="M438 652q103 0 171.5 62.5t68.5 154.5v96l-227 -17q-94 -6 -142.5 -43.5t-48.5 -104.5t48.5 -107.5t129.5 -40.5zM390 515q-134 0 -216.5 77t-82.5 202q0 123 87.5 194t251.5 81l245 15v80q0 75 -52 116t-147 41q-75 0 -125 -29.5t-60 -80.5h-165q11 115 108 183.5
t248 68.5q167 0 261 -81t94 -224v-618h-155v119h-16q-40 -69 -112 -106.5t-164 -37.5z" />
    <glyph glyph-name="guillemotleft" unicode="&#xab;" horiz-adv-x="1391" 
d="M861 573v-16l351 -412h-205l-350 416v8l351 416h204zM382 573v-16l351 -412h-204l-350 416v8l350 416h204z" />
    <glyph glyph-name="logicalnot" unicode="&#xac;" horiz-adv-x="1328" 
d="M1138 654v-528h-148v380h-800v148h948z" />
    <glyph glyph-name="registered" unicode="&#xae;" horiz-adv-x="1260" 
d="M630 449q-218 0 -370 152t-152 370q0 144 69.5 264t189.5 189t263 69q108 0 204.5 -41t166 -110.5t110.5 -166t41 -204.5q0 -143 -69 -263t-189 -189.5t-264 -69.5zM630 553q175 0 296.5 121.5t121.5 296.5t-121 296.5t-297 121.5q-175 0 -296.5 -121.5t-121.5 -296.5
t121.5 -296.5t296.5 -121.5zM527 733h-98v499h249q75 0 124.5 -43.5t49.5 -109.5q0 -122 -116 -150l138 -196h-120l-129 183h-98v-183zM527 1143v-143h124q92 0 92 74q0 69 -89 69h-127z" />
    <glyph glyph-name="macron" unicode="&#xaf;" horiz-adv-x="1048" 
d="M861 1286h-674v136h674v-136z" />
    <glyph glyph-name="degree" unicode="&#xb0;" horiz-adv-x="901" 
d="M450 813q-140 0 -232 94t-92 231t92 231t232 94t232.5 -94.5t92.5 -230.5t-92.5 -230.5t-232.5 -94.5zM450 941q89 0 144 57t55 140q0 84 -55.5 140.5t-143.5 56.5t-142.5 -56.5t-54.5 -140.5q0 -83 54.5 -140t142.5 -57z" />
    <glyph glyph-name="plusminus" unicode="&#xb1;" horiz-adv-x="1328" 
d="M1173 112h-1018v148h1018v-148zM738 662v-291h-148v291h-435v136h435v291h148v-291h435v-136h-435z" />
    <glyph glyph-name="two.sups" unicode="&#xb2;" horiz-adv-x="825" 
d="M95 1539q0 126 87.5 206t226.5 80q135 0 221.5 -73t86.5 -187q0 -70 -42.5 -140t-160.5 -188l-185 -186v-16h401v-135h-627v110l301 310q91 92 122 139.5t31 96.5q0 60 -43 99.5t-110 39.5q-70 0 -113.5 -43t-43.5 -113v-2h-152v2z" />
    <glyph glyph-name="three.sups" unicode="&#xb3;" horiz-adv-x="853" 
d="M311 1300v122h109q69 0 112 38.5t43 99.5t-42 97t-113 36q-69 0 -112.5 -37.5t-48.5 -101.5h-151q5 124 90.5 196.5t226.5 72.5q132 0 219.5 -68.5t87.5 -172.5q0 -77 -45.5 -133.5t-120.5 -72.5v-16q92 -7 147 -66t55 -149q0 -116 -97 -193t-245 -77q-146 0 -238.5 74.5
t-97.5 197.5h156q5 -63 54 -100.5t127 -37.5q77 0 126 40.5t49 104.5q0 68 -48 107t-131 39h-112z" />
    <glyph glyph-name="acute" unicode="&#xb4;" horiz-adv-x="1093" 
d="M286 1263l252 338h220l-278 -338h-194z" />
    <glyph glyph-name="mugreek" unicode="&#xb5;" horiz-adv-x="1258" 
d="M162 -360v1438h172v-654q0 -286 244 -286q130 0 207 81t77 221v638h172v-809q0 -73 22 -100.5t78 -27.5q25 0 49 4v-145q-37 -10 -82 -10q-111 0 -162 37.5t-67 130.5l-2 12h-16q-43 -96 -110.5 -142.5t-173.5 -46.5q-160 0 -220 129h-16v-470h-172z" />
    <glyph glyph-name="mugreek" unicode="&#x3bc;" horiz-adv-x="1258" 
d="M162 -360v1438h172v-654q0 -286 244 -286q130 0 207 81t77 221v638h172v-809q0 -73 22 -100.5t78 -27.5q25 0 49 4v-145q-37 -10 -82 -10q-111 0 -162 37.5t-67 130.5l-2 12h-16q-43 -96 -110.5 -142.5t-173.5 -46.5q-160 0 -220 129h-16v-470h-172z" />
    <glyph glyph-name="paragraph" unicode="&#xb6;" horiz-adv-x="1321" 
d="M834 -220h-180v795h-20q-202 0 -338 121.5t-136 305.5q0 191 136.5 316t338.5 125h199v-1663zM981 -220v1663h180v-1663h-180z" />
    <glyph glyph-name="periodcentered" unicode="&#xb7;" horiz-adv-x="630" 
d="M316 597q-62 0 -102 40t-40 102t40 102t102 40q61 0 100.5 -40t39.5 -102t-39.5 -102t-100.5 -40z" />
    <glyph glyph-name="cedilla" unicode="&#xb8;" horiz-adv-x="1093" 
d="M394 -244v84l63 160h134l-55 -142q102 0 158.5 -43t56.5 -120q0 -85 -65.5 -137t-178.5 -52q-85 0 -146 18v108q48 -14 122 -14q119 0 119 73q0 35 -35 50t-114 15h-59z" />
    <glyph glyph-name="one.sups" unicode="&#xb9;" horiz-adv-x="664" 
d="M477 900h-156v742h-16q-14 -9 -116 -82.5t-104 -75.5v152q87 65 236 167h156v-903z" />
    <glyph glyph-name="ordmasculine" unicode="&#xba;" horiz-adv-x="1024" 
d="M512 659q119 0 185 86.5t66 243.5q0 158 -65.5 244t-185.5 86q-119 0 -184.5 -86.5t-65.5 -243.5t65.5 -243.5t184.5 -86.5zM512 515q-197 0 -310.5 126.5t-113.5 347.5q0 220 113.5 347t310.5 127t310.5 -126.5t113.5 -347.5t-113.5 -347.5t-310.5 -126.5z" />
    <glyph glyph-name="guillemotright" unicode="&#xbb;" horiz-adv-x="1391" 
d="M530 573l-351 412h204l351 -416v-8l-350 -416h-205l351 412v16zM1009 573l-351 412h204l350 -416v-8l-350 -416h-204l351 412v16z" />
    <glyph glyph-name="onequarter" unicode="&#xbc;" horiz-adv-x="1944" 
d="M477 540h-156v742h-16q-14 -9 -116 -82.5t-104 -75.5v152q87 65 236 167h156v-903zM504 0l335 758l302 685h167l-318 -721l-319 -722h-167zM1513 903h230v-600h121v-133h-121v-170h-156v170h-452v141q46 85 122.5 204zM1285 307v-8h304v477h-6q-203 -300 -298 -469z" />
    <glyph glyph-name="onehalf" unicode="&#xbd;" horiz-adv-x="1949" 
d="M1219 639q0 126 87.5 206t226.5 80q135 0 221.5 -73t86.5 -187q0 -70 -42.5 -140t-160.5 -188l-185 -186v-16h401v-135h-627v110l301 310q91 92 122 139.5t31 96.5q0 60 -43 99.5t-110 39.5q-70 0 -113.5 -43t-43.5 -113v-2h-152v2zM477 540h-156v742h-16
q-14 -9 -116 -82.5t-104 -75.5v152q87 65 236 167h156v-903zM504 0l335 758l302 685h167l-318 -721l-319 -722h-167z" />
    <glyph glyph-name="threequarters" unicode="&#xbe;" horiz-adv-x="2134" 
d="M694 0l335 758l302 685h167l-318 -721l-319 -722h-167zM1703 903h230v-600h121v-133h-121v-170h-156v170h-452v141q77 141 378 592zM1475 307v-8h304v477h-6q-203 -300 -298 -469zM311 940v122h109q69 0 112 38.5t43 99.5t-42 97t-113 36q-69 0 -112.5 -37.5
t-48.5 -101.5h-151q5 124 90.5 196.5t226.5 72.5q132 0 219.5 -68.5t87.5 -172.5q0 -77 -45.5 -133.5t-120.5 -72.5v-16q92 -7 147 -66t55 -149q0 -116 -97 -193t-245 -77q-146 0 -238.5 74.5t-97.5 197.5h156q5 -63 54 -100.5t127 -37.5q77 0 126 40.5t49 104.5
q0 68 -48 107t-131 39h-112z" />
    <glyph glyph-name="questiondown" unicode="&#xbf;" horiz-adv-x="1050" 
d="M970 35q-8 -171 -121 -280t-314 -109q-188 0 -306.5 103t-118.5 261q0 216 209 343q94 56 128 106t34 130v65h175v-92q1 -98 -46.5 -169.5t-152.5 -134.5q-87 -54 -124 -107.5t-37 -131.5q0 -96 67.5 -156.5t178.5 -60.5q112 0 180.5 62.5t76.5 170.5h171zM557 840
q-61 0 -100 39t-39 100q0 60 39.5 100t99.5 40t99 -40t39 -100q0 -61 -38.5 -100t-99.5 -39z" />
    <glyph glyph-name="Agrave" unicode="&#xc0;" horiz-adv-x="1380" 
d="M1122 0l-145 413h-574l-145 -413h-189l532 1443h178l532 -1443h-189zM682 1210l-226 -644h468l-226 644h-16zM478 1873l310 -298h-204l-332 298h226z" />
    <glyph glyph-name="Aacute" unicode="&#xc1;" horiz-adv-x="1380" 
d="M1122 0l-145 413h-574l-145 -413h-189l532 1443h178l532 -1443h-189zM682 1210l-226 -644h468l-226 644h-16zM584 1575l310 298h226l-332 -298h-204z" />
    <glyph glyph-name="Acircumflex" unicode="&#xc2;" horiz-adv-x="1380" 
d="M1122 0l-145 413h-574l-145 -413h-189l532 1443h178l532 -1443h-189zM682 1210l-226 -644h468l-226 644h-16zM772 1873l300 -298h-202l-172 177h-16l-172 -177h-202l300 298h164z" />
    <glyph glyph-name="Atilde" unicode="&#xc3;" horiz-adv-x="1380" 
d="M1122 0l-145 413h-574l-145 -413h-189l532 1443h178l532 -1443h-189zM682 1210l-226 -644h468l-226 644h-16zM840 1575q-45 0 -82.5 17.5t-62.5 42t-47.5 49t-49 42t-54.5 17.5q-45 0 -68 -34.5t-26 -116.5h-136q0 133 60.5 207t165.5 74q48 0 88.5 -17.5t67 -42t49 -49
t45.5 -42t46 -17.5q87 0 95 151h135q0 -128 -61.5 -204.5t-164.5 -76.5z" />
    <glyph glyph-name="Adieresis" unicode="&#xc4;" horiz-adv-x="1380" 
d="M1122 0l-145 413h-574l-145 -413h-189l532 1443h178l532 -1443h-189zM682 1210l-226 -644h468l-226 644h-16zM488 1575q-50 0 -85.5 35.5t-35.5 85.5t35.5 85.5t85.5 35.5t85.5 -35.5t35.5 -85.5t-35.5 -85.5t-85.5 -35.5zM892 1575q-50 0 -85.5 35.5t-35.5 85.5
t35.5 85.5t85.5 35.5t85.5 -35.5t35.5 -85.5t-35.5 -85.5t-85.5 -35.5z" />
    <glyph glyph-name="Aring" unicode="&#xc5;" horiz-adv-x="1380" 
d="M1122 0l-145 413h-574l-145 -413h-189l532 1443h178l532 -1443h-189zM682 1210l-226 -644h468l-226 644h-16zM690 1551q-83 0 -141 57t-58 140t58 140t141 57t141 -57t58 -140t-58 -140t-141 -57zM690 1643q46 0 75.5 30t29.5 75q0 46 -29.5 75.5t-75.5 29.5t-75.5 -29.5
t-29.5 -75.5q0 -45 29.5 -75t75.5 -30z" />
    <glyph glyph-name="AE" unicode="&#xc6;" horiz-adv-x="1966" 
d="M986 1292h-147l-310 -680h457v680zM986 0v459h-527l-209 -459h-181l651 1443h1104v-162h-658v-473h621v-160h-621v-486h658v-162h-838z" />
    <glyph glyph-name="Ccedilla" unicode="&#xc7;" horiz-adv-x="1466" 
d="M1348 1008h-183q-36 140 -144 221.5t-257 81.5q-208 0 -329.5 -159t-121.5 -431t122 -430.5t330 -158.5q151 0 258.5 72.5t141.5 197.5h183q-33 -182 -170.5 -298t-341.5 -135l-43 -111q102 0 158.5 -43t56.5 -120q0 -85 -65.5 -137t-178.5 -52q-84 0 -146 18v108
q48 -14 122 -14q119 0 119 73q0 35 -35 50t-114 15h-59v84l51 129q-267 22 -420.5 222.5t-153.5 529.5q0 349 171 552.5t465 203.5q228 0 390 -130t194 -339z" />
    <glyph glyph-name="Egrave" unicode="&#xc8;" horiz-adv-x="1220" 
d="M1078 162v-162h-894v1443h894v-162h-714v-463h677v-160h-677v-496h714zM419 1873l310 -298h-204l-332 298h226z" />
    <glyph glyph-name="Eacute" unicode="&#xc9;" horiz-adv-x="1220" 
d="M1078 162v-162h-894v1443h894v-162h-714v-463h677v-160h-677v-496h714zM525 1575l310 298h226l-332 -298h-204z" />
    <glyph glyph-name="Ecircumflex" unicode="&#xca;" horiz-adv-x="1220" 
d="M1078 162v-162h-894v1443h894v-162h-714v-463h677v-160h-677v-496h714zM713 1873l300 -298h-202l-172 177h-16l-172 -177h-202l300 298h164z" />
    <glyph glyph-name="Edieresis" unicode="&#xcb;" horiz-adv-x="1220" 
d="M1078 162v-162h-894v1443h894v-162h-714v-463h677v-160h-677v-496h714zM429 1575q-50 0 -85.5 35.5t-35.5 85.5t35.5 85.5t85.5 35.5t85.5 -35.5t35.5 -85.5t-35.5 -85.5t-85.5 -35.5zM833 1575q-50 0 -85.5 35.5t-35.5 85.5t35.5 85.5t85.5 35.5t85.5 -35.5t35.5 -85.5
t-35.5 -85.5t-85.5 -35.5z" />
    <glyph glyph-name="Igrave" unicode="&#xcc;" horiz-adv-x="548" 
d="M364 0h-180v1443h180v-1443zM62 1873l310 -298h-204l-332 298h226z" />
    <glyph glyph-name="Iacute" unicode="&#xcd;" horiz-adv-x="548" 
d="M364 0h-180v1443h180v-1443zM168 1575l310 298h226l-332 -298h-204z" />
    <glyph glyph-name="Icircumflex" unicode="&#xce;" horiz-adv-x="548" 
d="M364 0h-180v1443h180v-1443zM356 1873l300 -298h-202l-172 177h-16l-172 -177h-202l300 298h164z" />
    <glyph glyph-name="Idieresis" unicode="&#xcf;" horiz-adv-x="548" 
d="M364 0h-180v1443h180v-1443zM72 1575q-50 0 -85.5 35.5t-35.5 85.5t35.5 85.5t85.5 35.5t85.5 -35.5t35.5 -85.5t-35.5 -85.5t-85.5 -35.5zM476 1575q-50 0 -85.5 35.5t-35.5 85.5t35.5 85.5t85.5 35.5t85.5 -35.5t35.5 -85.5t-35.5 -85.5t-85.5 -35.5z" />
    <glyph glyph-name="Eth" unicode="&#xd0;" horiz-adv-x="1487" 
d="M364 162h303q241 0 375 147t134 411q0 265 -134.5 413t-374.5 148h-303v-455h248v-163h-248v-501zM184 1443h495q321 0 501 -190.5t180 -530.5q0 -341 -179.5 -531.5t-501.5 -190.5h-495v663h-158v163h158v617z" />
    <glyph glyph-name="Ntilde" unicode="&#xd1;" horiz-adv-x="1520" 
d="M362 0h-178v1443h175l783 -1123h16v1123h178v-1443h-175l-783 1119h-16v-1119zM910 1575q-45 0 -82.5 17.5t-62.5 42t-47.5 49t-49 42t-54.5 17.5q-45 0 -68 -34.5t-26 -116.5h-136q0 133 60.5 207t165.5 74q48 0 88.5 -17.5t67 -42t49 -49t45.5 -42t46 -17.5
q87 0 95 151h135q0 -128 -61.5 -204.5t-164.5 -76.5z" />
    <glyph glyph-name="Ograve" unicode="&#xd2;" horiz-adv-x="1579" 
d="M791 1477q307 0 483.5 -203.5t176.5 -551.5t-176.5 -552t-483.5 -204q-309 0 -486 204t-177 552t178.5 551.5t484.5 203.5zM791 1311q-220 0 -349 -159t-129 -430t127.5 -430.5t350.5 -159.5q221 0 348 160t127 430q0 272 -127 430.5t-348 158.5zM579 1873l310 -298h-204
l-332 298h226z" />
    <glyph glyph-name="Oacute" unicode="&#xd3;" horiz-adv-x="1579" 
d="M791 1477q307 0 483.5 -203.5t176.5 -551.5t-176.5 -552t-483.5 -204q-309 0 -486 204t-177 552t178.5 551.5t484.5 203.5zM791 1311q-220 0 -349 -159t-129 -430t127.5 -430.5t350.5 -159.5q221 0 348 160t127 430q0 272 -127 430.5t-348 158.5zM685 1575l310 298h226
l-332 -298h-204z" />
    <glyph glyph-name="Ocircumflex" unicode="&#xd4;" horiz-adv-x="1579" 
d="M791 1477q307 0 483.5 -203.5t176.5 -551.5t-176.5 -552t-483.5 -204q-309 0 -486 204t-177 552t178.5 551.5t484.5 203.5zM791 1311q-220 0 -349 -159t-129 -430t127.5 -430.5t350.5 -159.5q221 0 348 160t127 430q0 272 -127 430.5t-348 158.5zM873 1873l300 -298h-202
l-172 177h-16l-172 -177h-202l300 298h164z" />
    <glyph glyph-name="Otilde" unicode="&#xd5;" horiz-adv-x="1579" 
d="M791 1477q307 0 483.5 -203.5t176.5 -551.5t-176.5 -552t-483.5 -204q-309 0 -486 204t-177 552t178.5 551.5t484.5 203.5zM791 1311q-220 0 -349 -159t-129 -430t127.5 -430.5t350.5 -159.5q221 0 348 160t127 430q0 272 -127 430.5t-348 158.5zM941 1575
q-45 0 -82.5 17.5t-62.5 42t-47.5 49t-49 42t-54.5 17.5q-45 0 -68 -34.5t-26 -116.5h-136q0 133 60.5 207t165.5 74q48 0 88.5 -17.5t67 -42t49 -49t45.5 -42t46 -17.5q87 0 95 151h135q0 -128 -61.5 -204.5t-164.5 -76.5z" />
    <glyph glyph-name="Odieresis" unicode="&#xd6;" horiz-adv-x="1579" 
d="M791 1477q307 0 483.5 -203.5t176.5 -551.5t-176.5 -552t-483.5 -204q-309 0 -486 204t-177 552t178.5 551.5t484.5 203.5zM791 1311q-220 0 -349 -159t-129 -430t127.5 -430.5t350.5 -159.5q221 0 348 160t127 430q0 272 -127 430.5t-348 158.5zM589 1575
q-50 0 -85.5 35.5t-35.5 85.5t35.5 85.5t85.5 35.5t85.5 -35.5t35.5 -85.5t-35.5 -85.5t-85.5 -35.5zM993 1575q-50 0 -85.5 35.5t-35.5 85.5t35.5 85.5t85.5 35.5t85.5 -35.5t35.5 -85.5t-35.5 -85.5t-85.5 -35.5z" />
    <glyph glyph-name="multiply" unicode="&#xd7;" horiz-adv-x="1328" 
d="M664 475l-308 -307l-104 104l307 308l-307 308l104 104l308 -307l308 307l104 -104l-307 -308l307 -308l-104 -104z" />
    <glyph glyph-name="Oslash" unicode="&#xd8;" horiz-adv-x="1551" 
d="M1158 1127l-675 -881q122 -114 308 -114q221 0 348 160t127 430q0 249 -108 405zM403 346l672 871q-117 94 -284 94q-220 0 -349 -159t-129 -430q0 -227 90 -376zM1382 1419l-110 -143q179 -202 179 -554q0 -348 -176.5 -552t-483.5 -204q-248 0 -418 137l-115 -150
l-100 76l127 165q-157 200 -157 528q0 348 178.5 551.5t484.5 203.5q231 0 392 -119l101 130z" />
    <glyph glyph-name="Ugrave" unicode="&#xd9;" horiz-adv-x="1524" 
d="M369 1443v-935q0 -167 104.5 -271.5t288.5 -104.5t288.5 104.5t104.5 271.5v935h180v-947q0 -235 -154.5 -382.5t-418.5 -147.5t-418.5 147.5t-154.5 382.5v947h180zM550 1873l310 -298h-204l-332 298h226z" />
    <glyph glyph-name="Uacute" unicode="&#xda;" horiz-adv-x="1524" 
d="M369 1443v-935q0 -167 104.5 -271.5t288.5 -104.5t288.5 104.5t104.5 271.5v935h180v-947q0 -235 -154.5 -382.5t-418.5 -147.5t-418.5 147.5t-154.5 382.5v947h180zM656 1575l310 298h226l-332 -298h-204z" />
    <glyph glyph-name="Ucircumflex" unicode="&#xdb;" horiz-adv-x="1524" 
d="M369 1443v-935q0 -167 104.5 -271.5t288.5 -104.5t288.5 104.5t104.5 271.5v935h180v-947q0 -235 -154.5 -382.5t-418.5 -147.5t-418.5 147.5t-154.5 382.5v947h180zM844 1873l300 -298h-202l-172 177h-16l-172 -177h-202l300 298h164z" />
    <glyph glyph-name="Udieresis" unicode="&#xdc;" horiz-adv-x="1524" 
d="M369 1443v-935q0 -167 104.5 -271.5t288.5 -104.5t288.5 104.5t104.5 271.5v935h180v-947q0 -235 -154.5 -382.5t-418.5 -147.5t-418.5 147.5t-154.5 382.5v947h180zM560 1575q-50 0 -85.5 35.5t-35.5 85.5t35.5 85.5t85.5 35.5t85.5 -35.5t35.5 -85.5t-35.5 -85.5
t-85.5 -35.5zM964 1575q-50 0 -85.5 35.5t-35.5 85.5t35.5 85.5t85.5 35.5t85.5 -35.5t35.5 -85.5t-35.5 -85.5t-85.5 -35.5z" />
    <glyph glyph-name="Yacute" unicode="&#xdd;" horiz-adv-x="1344" 
d="M762 0h-180v621l-512 822h205l389 -641h16l389 641h205l-512 -822v-621zM566 1575l310 298h226l-332 -298h-204z" />
    <glyph glyph-name="Thorn" unicode="&#xde;" horiz-adv-x="1280" 
d="M184 1443h180v-266h373q83 0 159 -28t134.5 -80t93.5 -131.5t35 -175.5t-35 -176t-94.5 -132t-135.5 -80.5t-159 -28.5h-371v-345h-180v1443zM364 1017v-512h322q130 0 209 66t79 191t-79 190t-209 65h-322z" />
    <glyph glyph-name="germandbls" unicode="&#xdf;" horiz-adv-x="1274" 
d="M396 0h-171v1101q0 182 115.5 288.5t303.5 106.5q183 0 299 -105t116 -270q0 -121 -65 -212t-164 -122v-18q156 -15 246 -108.5t90 -253.5q0 -181 -126 -301t-329 -120q-83 0 -144 13v153q61 -14 132 -14q139 0 217.5 75t78.5 196q0 125 -89.5 197t-250.5 72h-61v170h51
q113 0 179 68.5t66 195.5q0 100 -66 166t-177 66q-117 0 -184 -68.5t-67 -191.5v-1084z" />
    <glyph glyph-name="agrave" unicode="&#xe0;" horiz-adv-x="1130" 
d="M494 132q133 0 220.5 77t87.5 193v99l-290 -19q-122 -8 -179 -51t-57 -125q0 -81 61 -127.5t157 -46.5zM462 -19q-159 0 -261.5 87.5t-102.5 233.5q0 144 102 226t291 93l311 19v98q0 100 -62 153t-182 53q-97 0 -161 -35t-82 -99h-174q17 129 133.5 208t289.5 79
q196 0 303 -95t107 -264v-738h-164v159h-16q-52 -86 -138 -132t-194 -46zM686 1263h-194l-278 338h220z" />
    <glyph glyph-name="aacute" unicode="&#xe1;" horiz-adv-x="1130" 
d="M494 132q133 0 220.5 77t87.5 193v99l-290 -19q-122 -8 -179 -51t-57 -125q0 -81 61 -127.5t157 -46.5zM462 -19q-159 0 -261.5 87.5t-102.5 233.5q0 144 102 226t291 93l311 19v98q0 100 -62 153t-182 53q-97 0 -161 -35t-82 -99h-174q17 129 133.5 208t289.5 79
q196 0 303 -95t107 -264v-738h-164v159h-16q-52 -86 -138 -132t-194 -46zM450 1263l252 338h220l-278 -338h-194z" />
    <glyph glyph-name="acircumflex" unicode="&#xe2;" horiz-adv-x="1130" 
d="M494 132q133 0 220.5 77t87.5 193v99l-290 -19q-122 -8 -179 -51t-57 -125q0 -81 61 -127.5t157 -46.5zM462 -19q-159 0 -261.5 87.5t-102.5 233.5q0 144 102 226t291 93l311 19v98q0 100 -62 153t-182 53q-97 0 -161 -35t-82 -99h-174q17 129 133.5 208t289.5 79
q196 0 303 -95t107 -264v-738h-164v159h-16q-52 -86 -138 -132t-194 -46zM665 1568l282 -340h-198l-177 227h-16l-177 -227h-198l282 340h202z" />
    <glyph glyph-name="atilde" unicode="&#xe3;" horiz-adv-x="1130" 
d="M494 132q133 0 220.5 77t87.5 193v99l-290 -19q-122 -8 -179 -51t-57 -125q0 -81 61 -127.5t157 -46.5zM462 -19q-159 0 -261.5 87.5t-102.5 233.5q0 144 102 226t291 93l311 19v98q0 100 -62 153t-182 53q-97 0 -161 -35t-82 -99h-174q17 129 133.5 208t289.5 79
q196 0 303 -95t107 -264v-738h-164v159h-16q-52 -86 -138 -132t-194 -46zM426 1388q-53 0 -75.5 -36t-22.5 -121h-142q0 136 61.5 213.5t170.5 77.5q44 0 82.5 -16t64.5 -39t48 -46.5t44.5 -39.5t44.5 -16q53 0 75.5 36t22.5 121h142q0 -136 -61.5 -213.5t-170.5 -77.5
q-44 0 -82.5 16t-64.5 39.5t-48 46.5t-44.5 39t-44.5 16z" />
    <glyph glyph-name="adieresis" unicode="&#xe4;" horiz-adv-x="1130" 
d="M494 132q133 0 220.5 77t87.5 193v99l-290 -19q-122 -8 -179 -51t-57 -125q0 -81 61 -127.5t157 -46.5zM462 -19q-159 0 -261.5 87.5t-102.5 233.5q0 144 102 226t291 93l311 19v98q0 100 -62 153t-182 53q-97 0 -161 -35t-82 -99h-174q17 129 133.5 208t289.5 79
q196 0 303 -95t107 -264v-738h-164v159h-16q-52 -86 -138 -132t-194 -46zM362 1228q-50 0 -85.5 35.5t-35.5 85.5t35.5 85.5t85.5 35.5t85.5 -35.5t35.5 -85.5t-35.5 -85.5t-85.5 -35.5zM766 1228q-50 0 -85.5 35.5t-35.5 85.5t35.5 85.5t85.5 35.5t85.5 -35.5t35.5 -85.5
t-35.5 -85.5t-85.5 -35.5z" />
    <glyph glyph-name="aring" unicode="&#xe5;" horiz-adv-x="1130" 
d="M494 132q133 0 220.5 77t87.5 193v99l-290 -19q-122 -8 -179 -51t-57 -125q0 -81 61 -127.5t157 -46.5zM462 -19q-159 0 -261.5 87.5t-102.5 233.5q0 144 102 226t291 93l311 19v98q0 100 -62 153t-182 53q-97 0 -161 -35t-82 -99h-174q17 129 133.5 208t289.5 79
q196 0 303 -95t107 -264v-738h-164v159h-16q-52 -86 -138 -132t-194 -46zM564 1228q-96 0 -164 66.5t-68 162.5t68 162.5t164 66.5t164 -66.5t68 -162.5t-68 -162.5t-164 -66.5zM564 1334q52 0 87 35t35 88t-35 88t-87 35t-87 -35t-35 -88t35 -88t87 -35z" />
    <glyph glyph-name="ae" unicode="&#xe6;" horiz-adv-x="1849" 
d="M1287 -19q-129 0 -236 65t-150 166h-16q-53 -109 -158.5 -170t-247.5 -61q-171 0 -276 87t-105 234q0 144 102 226t291 93l311 19v98q0 100 -62 153t-182 53q-97 0 -161 -35t-82 -99h-174q17 130 133.5 208.5t289.5 78.5q124 0 214.5 -50.5t133.5 -134.5h16
q48 81 145.5 133t211.5 52q214 0 335 -140.5t121 -388.5v-68h-768v-18q7 -159 93 -253.5t225 -94.5q100 0 164.5 35.5t99.5 109.5h172q-41 -143 -155.5 -220.5t-284.5 -77.5zM1276 946q-130 0 -211.5 -82.5t-91.5 -224.5h587q-3 135 -82.5 221t-201.5 86zM504 132
q128 0 213 80.5t85 197.5v91l-290 -19q-122 -8 -179 -51t-57 -125q0 -81 62.5 -127.5t165.5 -46.5z" />
    <glyph glyph-name="ccedilla" unicode="&#xe7;" horiz-adv-x="1146" 
d="M1054 748h-174q-22 85 -94.5 139.5t-183.5 54.5q-145 0 -230.5 -108t-85.5 -291q0 -186 86 -296.5t230 -110.5q109 0 181.5 49t96.5 140h174q-22 -136 -119.5 -228t-253.5 -111l-49 -128q102 0 158.5 -43t56.5 -120q0 -85 -65.5 -137t-178.5 -52q-85 0 -146 18v108
q48 -14 122 -14q119 0 119 73q0 35 -35 50t-114 15h-59v84l57 144q-203 19 -321 169t-118 390q0 252 134 403t360 151q189 0 308.5 -99t143.5 -250z" />
    <glyph glyph-name="egrave" unicode="&#xe8;" horiz-adv-x="1170" 
d="M592 945q-129 0 -212 -87t-93 -230h594q-3 143 -82 230t-207 87zM876 279h172q-39 -140 -158.5 -219t-295.5 -79q-224 0 -355 150.5t-131 406.5q0 255 132 407t354 152q218 0 343 -145t125 -397v-66h-775v-8q7 -160 90.5 -254t220.5 -94q209 0 278 146zM716 1263h-194
l-278 338h220z" />
    <glyph glyph-name="eacute" unicode="&#xe9;" horiz-adv-x="1170" 
d="M592 945q-129 0 -212 -87t-93 -230h594q-3 143 -82 230t-207 87zM876 279h172q-39 -140 -158.5 -219t-295.5 -79q-224 0 -355 150.5t-131 406.5q0 255 132 407t354 152q218 0 343 -145t125 -397v-66h-775v-8q7 -160 90.5 -254t220.5 -94q209 0 278 146zM480 1263l252 338
h220l-278 -338h-194z" />
    <glyph glyph-name="ecircumflex" unicode="&#xea;" horiz-adv-x="1170" 
d="M592 945q-129 0 -212 -87t-93 -230h594q-3 143 -82 230t-207 87zM876 279h172q-39 -140 -158.5 -219t-295.5 -79q-224 0 -355 150.5t-131 406.5q0 255 132 407t354 152q218 0 343 -145t125 -397v-66h-775v-8q7 -160 90.5 -254t220.5 -94q209 0 278 146zM695 1568
l282 -340h-198l-177 227h-16l-177 -227h-198l282 340h202z" />
    <glyph glyph-name="edieresis" unicode="&#xeb;" horiz-adv-x="1170" 
d="M592 945q-129 0 -212 -87t-93 -230h594q-3 143 -82 230t-207 87zM876 279h172q-39 -140 -158.5 -219t-295.5 -79q-224 0 -355 150.5t-131 406.5q0 255 132 407t354 152q218 0 343 -145t125 -397v-66h-775v-8q7 -160 90.5 -254t220.5 -94q209 0 278 146zM392 1228
q-50 0 -85.5 35.5t-35.5 85.5t35.5 85.5t85.5 35.5t85.5 -35.5t35.5 -85.5t-35.5 -85.5t-85.5 -35.5zM796 1228q-50 0 -85.5 35.5t-35.5 85.5t35.5 85.5t85.5 35.5t85.5 -35.5t35.5 -85.5t-35.5 -85.5t-85.5 -35.5z" />
    <glyph glyph-name="igrave" unicode="&#xec;" horiz-adv-x="504" 
d="M166 0v1078h172v-1078h-172zM374 1263h-194l-278 338h220z" />
    <glyph glyph-name="iacute" unicode="&#xed;" horiz-adv-x="504" 
d="M166 0v1078h172v-1078h-172zM138 1263l252 338h220l-278 -338h-194z" />
    <glyph glyph-name="icircumflex" unicode="&#xee;" horiz-adv-x="504" 
d="M166 0v1078h172v-1078h-172zM353 1568l282 -340h-198l-177 227h-16l-177 -227h-198l282 340h202z" />
    <glyph glyph-name="idieresis" unicode="&#xef;" horiz-adv-x="504" 
d="M166 0v1078h172v-1078h-172zM50 1228q-50 0 -85.5 35.5t-35.5 85.5t35.5 85.5t85.5 35.5t85.5 -35.5t35.5 -85.5t-35.5 -85.5t-85.5 -35.5zM454 1228q-50 0 -85.5 35.5t-35.5 85.5t35.5 85.5t85.5 35.5t85.5 -35.5t35.5 -85.5t-35.5 -85.5t-85.5 -35.5z" />
    <glyph glyph-name="eth" unicode="&#xf0;" horiz-adv-x="1188" 
d="M601 -19q-229 0 -361 144t-132 394q0 241 125 389.5t328 148.5q101 0 192 -48t126 -121h15q-45 183 -182 351l-278 -90l-35 112l231 75q-62 73 -200 190h206q77 -65 145 -141l250 81l35 -112l-209 -68q110 -149 168.5 -333t58.5 -382q0 -273 -130 -431.5t-353 -158.5z
M601 902q-144 0 -229.5 -104t-85.5 -279t85.5 -279t229.5 -104q145 0 231 104t86 279q0 173 -87 278t-230 105z" />
    <glyph glyph-name="ntilde" unicode="&#xf1;" horiz-adv-x="1195" 
d="M162 0v1078h164v-170h16q86 189 324 189q181 0 279 -103.5t98 -295.5v-698h-172v656q0 145 -62.5 215.5t-191.5 70.5q-130 0 -206.5 -81.5t-76.5 -222.5v-638h-172zM465 1388q-53 0 -75.5 -36t-22.5 -121h-142q0 136 61.5 213.5t170.5 77.5q44 0 82.5 -16t64.5 -39
t48 -46.5t44.5 -39.5t44.5 -16q53 0 75.5 36t22.5 121h142q0 -136 -61.5 -213.5t-170.5 -77.5q-44 0 -82.5 16t-64.5 39.5t-48 46.5t-44.5 39t-44.5 16z" />
    <glyph glyph-name="ograve" unicode="&#xf2;" horiz-adv-x="1210" 
d="M605 136q153 0 236 105.5t83 297.5t-83 297.5t-236 105.5t-236 -105.5t-83 -297.5t83 -297.5t236 -105.5zM605 -19q-230 0 -363.5 149.5t-133.5 408.5q0 260 133 409t364 149t364 -149t133 -409q0 -259 -133.5 -408.5t-363.5 -149.5zM727 1263h-194l-278 338h220z" />
    <glyph glyph-name="oacute" unicode="&#xf3;" horiz-adv-x="1210" 
d="M605 136q153 0 236 105.5t83 297.5t-83 297.5t-236 105.5t-236 -105.5t-83 -297.5t83 -297.5t236 -105.5zM605 -19q-230 0 -363.5 149.5t-133.5 408.5q0 260 133 409t364 149t364 -149t133 -409q0 -259 -133.5 -408.5t-363.5 -149.5zM491 1263l252 338h220l-278 -338
h-194z" />
    <glyph glyph-name="ocircumflex" unicode="&#xf4;" horiz-adv-x="1210" 
d="M605 136q153 0 236 105.5t83 297.5t-83 297.5t-236 105.5t-236 -105.5t-83 -297.5t83 -297.5t236 -105.5zM605 -19q-230 0 -363.5 149.5t-133.5 408.5q0 260 133 409t364 149t364 -149t133 -409q0 -259 -133.5 -408.5t-363.5 -149.5zM706 1568l282 -340h-198l-177 227
h-16l-177 -227h-198l282 340h202z" />
    <glyph glyph-name="otilde" unicode="&#xf5;" horiz-adv-x="1210" 
d="M605 136q153 0 236 105.5t83 297.5t-83 297.5t-236 105.5t-236 -105.5t-83 -297.5t83 -297.5t236 -105.5zM605 -19q-230 0 -363.5 149.5t-133.5 408.5q0 260 133 409t364 149t364 -149t133 -409q0 -259 -133.5 -408.5t-363.5 -149.5zM467 1388q-53 0 -75.5 -36
t-22.5 -121h-142q0 136 61.5 213.5t170.5 77.5q44 0 82.5 -16t64.5 -39t48 -46.5t44.5 -39.5t44.5 -16q53 0 75.5 36t22.5 121h142q0 -136 -61.5 -213.5t-170.5 -77.5q-44 0 -82.5 16t-64.5 39.5t-48 46.5t-44.5 39t-44.5 16z" />
    <glyph glyph-name="odieresis" unicode="&#xf6;" horiz-adv-x="1210" 
d="M605 136q153 0 236 105.5t83 297.5t-83 297.5t-236 105.5t-236 -105.5t-83 -297.5t83 -297.5t236 -105.5zM605 -19q-230 0 -363.5 149.5t-133.5 408.5q0 260 133 409t364 149t364 -149t133 -409q0 -259 -133.5 -408.5t-363.5 -149.5zM403 1228q-50 0 -85.5 35.5
t-35.5 85.5t35.5 85.5t85.5 35.5t85.5 -35.5t35.5 -85.5t-35.5 -85.5t-85.5 -35.5zM807 1228q-50 0 -85.5 35.5t-35.5 85.5t35.5 85.5t85.5 35.5t85.5 -35.5t35.5 -85.5t-35.5 -85.5t-85.5 -35.5z" />
    <glyph glyph-name="divide" unicode="&#xf7;" horiz-adv-x="1328" 
d="M1173 506h-1018v148h1018v-148zM665 812q-54 0 -90 35.5t-36 89.5t36 89.5t90 35.5q53 0 88.5 -35.5t35.5 -89.5q0 -55 -35.5 -90t-88.5 -35zM665 98q-54 0 -90 35.5t-36 89.5t36 89.5t90 35.5q53 0 88.5 -35.5t35.5 -89.5q0 -55 -35.5 -90t-88.5 -35z" />
    <glyph glyph-name="oslash" unicode="&#xf8;" horiz-adv-x="1210" 
d="M856 815l-427 -629q73 -50 176 -50q153 0 236 105.5t83 297.5q0 175 -68 276zM344 280l425 620q-69 42 -164 42q-153 0 -236 -105.5t-83 -297.5q0 -158 58 -259zM1018 1054l-62 -92q146 -149 146 -423q0 -259 -133.5 -408.5t-363.5 -149.5q-155 0 -268 69l-59 -87
l-104 69l67 98q-133 150 -133 409q0 260 133 409t364 149q144 0 256 -62l57 83z" />
    <glyph glyph-name="ugrave" unicode="&#xf9;" horiz-adv-x="1196" 
d="M1034 1078v-1078h-164v169h-16q-41 -91 -126 -139.5t-208 -48.5q-180 0 -274 103t-94 296v698h172v-656q0 -147 58 -215.5t186 -68.5q141 0 217.5 79.5t76.5 222.5v638h172zM715 1263h-194l-278 338h220z" />
    <glyph glyph-name="uacute" unicode="&#xfa;" horiz-adv-x="1196" 
d="M1034 1078v-1078h-164v169h-16q-41 -91 -126 -139.5t-208 -48.5q-180 0 -274 103t-94 296v698h172v-656q0 -147 58 -215.5t186 -68.5q141 0 217.5 79.5t76.5 222.5v638h172zM479 1263l252 338h220l-278 -338h-194z" />
    <glyph glyph-name="ucircumflex" unicode="&#xfb;" horiz-adv-x="1196" 
d="M1034 1078v-1078h-164v169h-16q-41 -91 -126 -139.5t-208 -48.5q-180 0 -274 103t-94 296v698h172v-656q0 -147 58 -215.5t186 -68.5q141 0 217.5 79.5t76.5 222.5v638h172zM694 1568l282 -340h-198l-177 227h-16l-177 -227h-198l282 340h202z" />
    <glyph glyph-name="udieresis" unicode="&#xfc;" horiz-adv-x="1196" 
d="M1034 1078v-1078h-164v169h-16q-41 -91 -126 -139.5t-208 -48.5q-180 0 -274 103t-94 296v698h172v-656q0 -147 58 -215.5t186 -68.5q141 0 217.5 79.5t76.5 222.5v638h172zM391 1228q-50 0 -85.5 35.5t-35.5 85.5t35.5 85.5t85.5 35.5t85.5 -35.5t35.5 -85.5
t-35.5 -85.5t-85.5 -35.5zM795 1228q-50 0 -85.5 35.5t-35.5 85.5t35.5 85.5t85.5 35.5t85.5 -35.5t35.5 -85.5t-35.5 -85.5t-85.5 -35.5z" />
    <glyph glyph-name="yacute" unicode="&#xfd;" horiz-adv-x="1112" 
d="M254 -390q-41 0 -77 6v147q26 -5 72 -5q75 0 119.5 40t78.5 137l20 64l-399 1079h186l296 -887h16l295 887h183l-421 -1144q-69 -187 -147 -255.5t-222 -68.5zM437 1263l252 338h220l-278 -338h-194z" />
    <glyph glyph-name="thorn" unicode="&#xfe;" horiz-adv-x="1258" 
d="M697 1097q206 0 329.5 -152t123.5 -406q0 -253 -124 -405.5t-329 -152.5q-115 0 -204 47.5t-133 133.5h-16v-522h-172v1866h164v-608h16q52 93 143.5 146t201.5 53zM656 136q148 0 232 107t84 296t-83.5 296t-231.5 107q-146 0 -232 -108.5t-86 -294.5q0 -185 85.5 -294
t231.5 -109z" />
    <glyph glyph-name="ydieresis" unicode="&#xff;" horiz-adv-x="1112" 
d="M254 -390q-41 0 -77 6v147q26 -5 72 -5q75 0 119.5 40t78.5 137l20 64l-399 1079h186l296 -887h16l295 887h183l-421 -1144q-69 -187 -147 -255.5t-222 -68.5zM349 1228q-50 0 -85.5 35.5t-35.5 85.5t35.5 85.5t85.5 35.5t85.5 -35.5t35.5 -85.5t-35.5 -85.5t-85.5 -35.5
zM753 1228q-50 0 -85.5 35.5t-35.5 85.5t35.5 85.5t85.5 35.5t85.5 -35.5t35.5 -85.5t-35.5 -85.5t-85.5 -35.5z" />
    <glyph glyph-name="Amacron" unicode="&#x100;" horiz-adv-x="1380" 
d="M1122 0l-145 413h-574l-145 -413h-189l532 1443h178l532 -1443h-189zM682 1210l-226 -644h468l-226 644h-16zM1027 1620h-674v136h674v-136z" />
    <glyph glyph-name="amacron" unicode="&#x101;" horiz-adv-x="1130" 
d="M494 132q133 0 220.5 77t87.5 193v99l-290 -19q-122 -8 -179 -51t-57 -125q0 -81 61 -127.5t157 -46.5zM462 -19q-159 0 -261.5 87.5t-102.5 233.5q0 144 102 226t291 93l311 19v98q0 100 -62 153t-182 53q-97 0 -161 -35t-82 -99h-174q17 129 133.5 208t289.5 79
q196 0 303 -95t107 -264v-738h-164v159h-16q-52 -86 -138 -132t-194 -46zM901 1286h-674v136h674v-136z" />
    <glyph glyph-name="Abreve" unicode="&#x102;" horiz-adv-x="1380" 
d="M1122 0l-145 413h-574l-145 -413h-189l532 1443h178l532 -1443h-189zM682 1210l-226 -644h468l-226 644h-16zM326 1873h154q0 -79 56.5 -126t153.5 -47t153.5 47t56.5 126h154q0 -135 -98 -216.5t-266 -81.5t-266 81.5t-98 216.5z" />
    <glyph glyph-name="abreve" unicode="&#x103;" horiz-adv-x="1130" 
d="M494 132q133 0 220.5 77t87.5 193v99l-290 -19q-122 -8 -179 -51t-57 -125q0 -81 61 -127.5t157 -46.5zM462 -19q-159 0 -261.5 87.5t-102.5 233.5q0 144 102 226t291 93l311 19v98q0 100 -62 153t-182 53q-97 0 -161 -35t-82 -99h-174q17 129 133.5 208t289.5 79
q196 0 303 -95t107 -264v-738h-164v159h-16q-52 -86 -138 -132t-194 -46zM198 1556h154q0 -89 55.5 -144.5t154.5 -55.5t154.5 55.5t55.5 144.5h154q0 -145 -98 -236.5t-266 -91.5t-266 91.5t-98 236.5z" />
    <glyph glyph-name="Aogonek" unicode="&#x104;" horiz-adv-x="1380" 
d="M682 1210l-226 -644h468l-226 644h-16zM1120 8l-143 405h-574l-145 -413h-189l532 1443h178l532 -1443l-11 -5q-84 -38 -134 -82t-50 -103q0 -46 33 -72t79 -26q42 0 66 6v-134q-46 -16 -104 -16q-109 0 -176 58.5t-67 145.5q0 70 48 133t125 103z" />
    <glyph glyph-name="aogonek" unicode="&#x105;" horiz-adv-x="1130" 
d="M494 132q132 0 220 77t88 193v99l-290 -19q-122 -8 -179 -51t-57 -125q0 -79 60 -126.5t158 -47.5zM619 -228q0 81 54 145.5t137 94.5v147h-16q-52 -86 -138 -132t-194 -46q-162 0 -263 89t-101 232t101.5 225.5t291.5 93.5l311 19v98q0 101 -62.5 153.5t-181.5 52.5
q-98 0 -161.5 -35t-81.5 -99h-174q17 129 133.5 208t289.5 79q194 0 302 -94.5t108 -264.5v-738l-12 -5q-81 -33 -127.5 -82t-46.5 -103q0 -43 31.5 -70.5t80.5 -27.5q44 0 66 6v-134q-45 -16 -104 -16q-106 0 -174.5 57.5t-68.5 146.5z" />
    <glyph glyph-name="Cacute" unicode="&#x106;" horiz-adv-x="1466" 
d="M765 -34q-294 0 -465.5 203t-171.5 552t171 552.5t465 203.5q228 0 390 -130t194 -339h-183q-36 140 -144 221.5t-257 81.5q-208 0 -329.5 -159t-121.5 -431t122 -430.5t330 -158.5q151 0 258.5 72.5t141.5 197.5h183q-36 -199 -194.5 -317.5t-388.5 -118.5zM658 1577
l310 298h226l-332 -298h-204z" />
    <glyph glyph-name="cacute" unicode="&#x107;" horiz-adv-x="1146" 
d="M1054 748h-174q-22 85 -94.5 139.5t-183.5 54.5q-145 0 -230.5 -108t-85.5 -291q0 -186 86 -296.5t230 -110.5q109 0 181.5 49t96.5 140h174q-24 -153 -143 -248.5t-308 -95.5q-227 0 -361 152.5t-134 409.5q0 252 134 403t360 151q189 0 308.5 -99t143.5 -250zM486 1263
l252 338h220l-278 -338h-194z" />
    <glyph glyph-name="Ccircumflex" unicode="&#x108;" horiz-adv-x="1466" 
d="M765 -34q-294 0 -465.5 203t-171.5 552t171 552.5t465 203.5q228 0 390 -130t194 -339h-183q-36 140 -144 221.5t-257 81.5q-208 0 -329.5 -159t-121.5 -431t122 -430.5t330 -158.5q151 0 258.5 72.5t141.5 197.5h183q-36 -199 -194.5 -317.5t-388.5 -118.5zM846 1875
l300 -298h-202l-172 177h-16l-172 -177h-202l300 298h164z" />
    <glyph glyph-name="ccircumflex" unicode="&#x109;" horiz-adv-x="1146" 
d="M1054 748h-174q-22 85 -94.5 139.5t-183.5 54.5q-145 0 -230.5 -108t-85.5 -291q0 -186 86 -296.5t230 -110.5q109 0 181.5 49t96.5 140h174q-24 -153 -143 -248.5t-308 -95.5q-227 0 -361 152.5t-134 409.5q0 252 134 403t360 151q189 0 308.5 -99t143.5 -250zM701 1568
l282 -340h-198l-177 227h-16l-177 -227h-198l282 340h202z" />
    <glyph glyph-name="Cdotaccent" unicode="&#x10a;" horiz-adv-x="1466" 
d="M765 -34q-294 0 -465.5 203t-171.5 552t171 552.5t465 203.5q228 0 390 -130t194 -339h-183q-36 140 -144 221.5t-257 81.5q-208 0 -329.5 -159t-121.5 -431t122 -430.5t330 -158.5q151 0 258.5 72.5t141.5 197.5h183q-36 -199 -194.5 -317.5t-388.5 -118.5zM764 1577
q-50 0 -85.5 35.5t-35.5 85.5t35.5 85.5t85.5 35.5t85.5 -35.5t35.5 -85.5t-35.5 -85.5t-85.5 -35.5z" />
    <glyph glyph-name="cdotaccent" unicode="&#x10b;" horiz-adv-x="1146" 
d="M1054 748h-174q-22 85 -94.5 139.5t-183.5 54.5q-145 0 -230.5 -108t-85.5 -291q0 -186 86 -296.5t230 -110.5q109 0 181.5 49t96.5 140h174q-24 -153 -143 -248.5t-308 -95.5q-227 0 -361 152.5t-134 409.5q0 252 134 403t360 151q189 0 308.5 -99t143.5 -250zM600 1287
q-52 0 -90 37.5t-38 90.5q0 52 37.5 89.5t90.5 37.5t90.5 -37.5t37.5 -89.5q0 -53 -38 -90.5t-90 -37.5z" />
    <glyph glyph-name="Ccaron" unicode="&#x10c;" horiz-adv-x="1466" 
d="M765 -34q-294 0 -465.5 203t-171.5 552t171 552.5t465 203.5q228 0 390 -130t194 -339h-183q-36 140 -144 221.5t-257 81.5q-208 0 -329.5 -159t-121.5 -431t122 -430.5t330 -158.5q151 0 258.5 72.5t141.5 197.5h183q-36 -199 -194.5 -317.5t-388.5 -118.5zM846 1577
h-164l-300 298h202l172 -177h16l172 177h202z" />
    <glyph glyph-name="ccaron" unicode="&#x10d;" horiz-adv-x="1146" 
d="M1054 748h-174q-22 85 -94.5 139.5t-183.5 54.5q-145 0 -230.5 -108t-85.5 -291q0 -186 86 -296.5t230 -110.5q109 0 181.5 49t96.5 140h174q-24 -153 -143 -248.5t-308 -95.5q-227 0 -361 152.5t-134 409.5q0 252 134 403t360 151q189 0 308.5 -99t143.5 -250zM701 1228
h-202l-282 340h198l177 -227h16l177 227h198z" />
    <glyph glyph-name="Dcaron" unicode="&#x10e;" horiz-adv-x="1487" 
d="M184 1443h495q321 0 501 -190.5t180 -530.5q0 -341 -179.5 -531.5t-501.5 -190.5h-495v1443zM364 1281v-1119h303q241 0 375 147t134 411q0 265 -134.5 413t-374.5 148h-303zM676 1575h-164l-300 298h202l172 -177h16l172 177h202z" />
    <glyph glyph-name="dcaron" unicode="&#x10f;" horiz-adv-x="1387" 
d="M1237 1506h170l-50 -488h-120v488zM561 -19q-207 0 -330 152t-123 406q0 253 123.5 405.5t329.5 152.5q113 0 202.5 -50.5t135.5 -138.5h15v598h172v-1506h-164v172h-16q-51 -90 -142 -140.5t-203 -50.5zM601 942q-147 0 -231 -107.5t-84 -295.5q0 -189 83.5 -296
t231.5 -107q147 0 232 108t85 295q0 185 -85.5 294t-231.5 109z" />
    <glyph glyph-name="Dcroat" unicode="&#x110;" horiz-adv-x="1492" 
d="M369 162h303q241 0 375 147t134 411q0 265 -134.5 413t-374.5 148h-303v-455h243v-163h-243v-501zM189 1443h495q321 0 501 -190.5t180 -530.5q0 -341 -179.5 -531.5t-501.5 -190.5h-495v663h-163v163h163v617z" />
    <glyph glyph-name="dcroat" unicode="&#x111;" horiz-adv-x="1258" 
d="M601 136q147 0 232 108t85 295q0 185 -85.5 294t-231.5 109q-147 0 -231 -107.5t-84 -295.5q0 -189 83.5 -296t231.5 -107zM1230 1401v-124h-144v-1277h-164v172h-16q-51 -90 -142 -140.5t-203 -50.5q-207 0 -330 152t-123 406q0 253 123.5 405.5t329.5 152.5
q113 0 202.5 -50.5t135.5 -138.5h15v369h-260v124h260v105h172v-105h144z" />
    <glyph glyph-name="Emacron" unicode="&#x112;" horiz-adv-x="1220" 
d="M1078 162v-162h-894v1443h894v-162h-714v-463h677v-160h-677v-496h714zM968 1620h-674v136h674v-136z" />
    <glyph glyph-name="emacron" unicode="&#x113;" horiz-adv-x="1170" 
d="M592 945q-129 0 -212 -87t-93 -230h594q-3 143 -82 230t-207 87zM876 279h172q-39 -140 -158.5 -219t-295.5 -79q-224 0 -355 150.5t-131 406.5q0 255 132 407t354 152q218 0 343 -145t125 -397v-66h-775v-8q7 -160 90.5 -254t220.5 -94q209 0 278 146zM931 1286h-674
v136h674v-136z" />
    <glyph glyph-name="Ebreve" unicode="&#x114;" horiz-adv-x="1220" 
d="M1078 162v-162h-894v1443h894v-162h-714v-463h677v-160h-677v-496h714zM267 1873h154q0 -79 56.5 -126t153.5 -47t153.5 47t56.5 126h154q0 -135 -98 -216.5t-266 -81.5t-266 81.5t-98 216.5z" />
    <glyph glyph-name="ebreve" unicode="&#x115;" horiz-adv-x="1170" 
d="M592 945q-129 0 -212 -87t-93 -230h594q-3 143 -82 230t-207 87zM876 279h172q-39 -140 -158.5 -219t-295.5 -79q-224 0 -355 150.5t-131 406.5q0 255 132 407t354 152q218 0 343 -145t125 -397v-66h-775v-8q7 -160 90.5 -254t220.5 -94q209 0 278 146zM228 1556h154
q0 -89 55.5 -144.5t154.5 -55.5t154.5 55.5t55.5 144.5h154q0 -145 -98 -236.5t-266 -91.5t-266 91.5t-98 236.5z" />
    <glyph glyph-name="Edotaccent" unicode="&#x116;" horiz-adv-x="1220" 
d="M1078 162v-162h-894v1443h894v-162h-714v-463h677v-160h-677v-496h714zM631 1575q-50 0 -85.5 35.5t-35.5 85.5t35.5 85.5t85.5 35.5t85.5 -35.5t35.5 -85.5t-35.5 -85.5t-85.5 -35.5z" />
    <glyph glyph-name="edotaccent" unicode="&#x117;" horiz-adv-x="1170" 
d="M592 945q-129 0 -212 -87t-93 -230h594q-3 143 -82 230t-207 87zM876 279h172q-39 -140 -158.5 -219t-295.5 -79q-224 0 -355 150.5t-131 406.5q0 255 132 407t354 152q218 0 343 -145t125 -397v-66h-775v-8q7 -160 90.5 -254t220.5 -94q209 0 278 146zM594 1287
q-52 0 -90 37.5t-38 90.5q0 52 37.5 89.5t90.5 37.5t90.5 -37.5t37.5 -89.5q0 -53 -38 -90.5t-90 -37.5z" />
    <glyph glyph-name="Eogonek" unicode="&#x118;" horiz-adv-x="1220" 
d="M824 0h-640v1443h894v-162h-714v-463h677v-160h-677v-496h714v-150l-42 -16q-79 -30 -131.5 -77.5t-52.5 -108.5q0 -46 33 -72t79 -26q42 0 66 6v-134q-46 -16 -104 -16q-109 0 -176 58.5t-67 145.5q0 67 38.5 122.5t102.5 89.5v16z" />
    <glyph glyph-name="eogonek" unicode="&#x119;" horiz-adv-x="1170" 
d="M592 945q-129 0 -212 -87t-93 -230h594q-3 143 -82 230t-207 87zM545 -228q0 123 131 208v16q-30 -15 -82 -15q-224 0 -355 150.5t-131 406.5q0 255 132 407t354 152q218 0 343 -145t125 -397v-66h-775v-8q7 -160 90.5 -254t220.5 -94q209 0 278 146h172
q-13 -51 -58.5 -118t-107.5 -117q-85 -70 -126.5 -124t-41.5 -110q0 -46 33 -72t79 -26q42 0 66 6v-134q-46 -16 -104 -16q-109 0 -176 58.5t-67 145.5z" />
    <glyph glyph-name="Ecaron" unicode="&#x11a;" horiz-adv-x="1220" 
d="M1078 162v-162h-894v1443h894v-162h-714v-463h677v-160h-677v-496h714zM713 1575h-164l-300 298h202l172 -177h16l172 177h202z" />
    <glyph glyph-name="ecaron" unicode="&#x11b;" horiz-adv-x="1170" 
d="M592 945q-129 0 -212 -87t-93 -230h594q-3 143 -82 230t-207 87zM876 279h172q-39 -140 -158.5 -219t-295.5 -79q-224 0 -355 150.5t-131 406.5q0 255 132 407t354 152q218 0 343 -145t125 -397v-66h-775v-8q7 -160 90.5 -254t220.5 -94q209 0 278 146zM695 1228h-202
l-282 340h198l177 -227h16l177 227h198z" />
    <glyph glyph-name="Gcircumflex" unicode="&#x11c;" horiz-adv-x="1529" 
d="M1395 558q0 -267 -168 -429.5t-445 -162.5q-299 0 -476.5 205t-177.5 551q0 342 179 548.5t475 206.5q240 0 402.5 -125t201.5 -339h-183q-47 146 -154 222t-267 76q-214 0 -341.5 -160t-127.5 -429q0 -273 126.5 -431.5t343.5 -158.5q194 0 313.5 113t119.5 296v35h-406
v158h585v-176zM864 1873l300 -298h-202l-172 177h-16l-172 -177h-202l300 298h164z" />
    <glyph glyph-name="gcircumflex" unicode="&#x11d;" horiz-adv-x="1248" 
d="M918 555q0 177 -86 282t-234 105t-230 -104t-82 -283t82 -283t230 -104q149 0 234.5 105t85.5 282zM606 -414q-193 0 -312.5 80t-139.5 215h182q14 -67 85 -106t185 -39q145 0 226.5 67.5t81.5 186.5v212h-16q-51 -89 -139 -137.5t-199 -48.5q-208 0 -330 147.5
t-122 391.5t123 393t329 149q113 0 206 -51.5t140 -138.5h16v171h164v-1097q0 -181 -130 -288t-350 -107zM695 1568l282 -340h-198l-177 227h-16l-177 -227h-198l282 340h202z" />
    <glyph glyph-name="Gbreve" unicode="&#x11e;" horiz-adv-x="1529" 
d="M1395 558q0 -267 -168 -429.5t-445 -162.5q-299 0 -476.5 205t-177.5 551q0 342 179 548.5t475 206.5q240 0 402.5 -125t201.5 -339h-183q-47 146 -154 222t-267 76q-214 0 -341.5 -160t-127.5 -429q0 -273 126.5 -431.5t343.5 -158.5q194 0 313.5 113t119.5 296v35h-406
v158h585v-176zM418 1873h154q0 -79 56.5 -126t153.5 -47t153.5 47t56.5 126h154q0 -135 -98 -216.5t-266 -81.5t-266 81.5t-98 216.5z" />
    <glyph glyph-name="gbreve" unicode="&#x11f;" horiz-adv-x="1248" 
d="M918 555q0 177 -86 282t-234 105t-230 -104t-82 -283t82 -283t230 -104q149 0 234.5 105t85.5 282zM606 -414q-193 0 -312.5 80t-139.5 215h182q14 -67 85 -106t185 -39q145 0 226.5 67.5t81.5 186.5v212h-16q-51 -89 -139 -137.5t-199 -48.5q-208 0 -330 147.5
t-122 391.5t123 393t329 149q113 0 206 -51.5t140 -138.5h16v171h164v-1097q0 -181 -130 -288t-350 -107zM228 1556h154q0 -89 55.5 -144.5t154.5 -55.5t154.5 55.5t55.5 144.5h154q0 -145 -98 -236.5t-266 -91.5t-266 91.5t-98 236.5z" />
    <glyph glyph-name="Gdotaccent" unicode="&#x120;" horiz-adv-x="1529" 
d="M1395 558q0 -267 -168 -429.5t-445 -162.5q-299 0 -476.5 205t-177.5 551q0 342 179 548.5t475 206.5q240 0 402.5 -125t201.5 -339h-183q-47 146 -154 222t-267 76q-214 0 -341.5 -160t-127.5 -429q0 -273 126.5 -431.5t343.5 -158.5q194 0 313.5 113t119.5 296v35h-406
v158h585v-176zM782 1575q-50 0 -85.5 35.5t-35.5 85.5t35.5 85.5t85.5 35.5t85.5 -35.5t35.5 -85.5t-35.5 -85.5t-85.5 -35.5z" />
    <glyph glyph-name="gdotaccent" unicode="&#x121;" horiz-adv-x="1248" 
d="M918 555q0 177 -86 282t-234 105t-230 -104t-82 -283t82 -283t230 -104q149 0 234.5 105t85.5 282zM606 -414q-193 0 -312.5 80t-139.5 215h182q14 -67 85 -106t185 -39q145 0 226.5 67.5t81.5 186.5v212h-16q-51 -89 -139 -137.5t-199 -48.5q-208 0 -330 147.5
t-122 391.5t123 393t329 149q113 0 206 -51.5t140 -138.5h16v171h164v-1097q0 -181 -130 -288t-350 -107zM594 1287q-52 0 -90 37.5t-38 90.5q0 52 37.5 89.5t90.5 37.5t90.5 -37.5t37.5 -89.5q0 -53 -38 -90.5t-90 -37.5z" />
    <glyph glyph-name="Gcommaaccent" unicode="&#x122;" horiz-adv-x="1529" 
d="M1395 558q0 -267 -168 -429.5t-445 -162.5q-299 0 -476.5 205t-177.5 551q0 342 179 548.5t475 206.5q240 0 402.5 -125t201.5 -339h-183q-47 146 -154 222t-267 76q-214 0 -341.5 -160t-127.5 -429q0 -273 126.5 -431.5t343.5 -158.5q194 0 313.5 113t119.5 296v35h-406
v158h585v-176zM785 -518h-167l102 377h182z" />
    <glyph glyph-name="gcommaaccent" unicode="&#x123;" horiz-adv-x="1248" 
d="M918 555q0 177 -86 282t-234 105t-230 -104t-82 -283t82 -283t230 -104q149 0 234.5 105t85.5 282zM606 -414q-193 0 -312.5 80t-139.5 215h182q14 -67 85 -106t185 -39q145 0 226.5 67.5t81.5 186.5v212h-16q-51 -89 -139 -137.5t-199 -48.5q-208 0 -330 147.5
t-122 391.5t123 393t329 149q113 0 206 -51.5t140 -138.5h16v171h164v-1097q0 -181 -130 -288t-350 -107zM604 1663h167l-102 -377h-182z" />
    <glyph glyph-name="Hcircumflex" unicode="&#x124;" horiz-adv-x="1520" 
d="M1336 0h-180v657h-792v-657h-180v1443h180v-624h792v624h180v-1443zM842 1873l300 -298h-202l-172 177h-16l-172 -177h-202l300 298h164z" />
    <glyph glyph-name="hcircumflex" unicode="&#x125;" horiz-adv-x="1216" 
d="M172 0v1506h172v-598h16q41 91 125.5 140t206.5 49q172 0 272 -105.5t100 -293.5v-698h-172v656q0 286 -249 286q-142 0 -220.5 -82.5t-78.5 -221.5v-638h-172zM340 1936l300 -298h-202l-172 177h-16l-172 -177h-202l300 298h164z" />
    <glyph glyph-name="Hbar" unicode="&#x126;" horiz-adv-x="1520" 
d="M1156 819v256h-792v-256h792zM1472 1218v-143h-136v-1075h-180v657h-792v-657h-180v1075h-136v143h136v225h180v-225h792v225h180v-225h136z" />
    <glyph glyph-name="hbar" unicode="&#x127;" horiz-adv-x="1216" 
d="M344 908h16q41 91 125.5 140t206.5 49q172 0 272 -105.5t100 -293.5v-698h-172v656q0 286 -249 286q-142 0 -220.5 -82.5t-78.5 -221.5v-638h-172v1277h-144v124h144v105h172v-105h260v-124h-260v-369z" />
    <glyph glyph-name="Itilde" unicode="&#x128;" horiz-adv-x="548" 
d="M364 0h-180v1443h180v-1443zM424 1575q-45 0 -82.5 17.5t-62.5 42t-47.5 49t-49 42t-54.5 17.5q-45 0 -68 -34.5t-26 -116.5h-136q0 133 60.5 207t165.5 74q48 0 88.5 -17.5t67 -42t49 -49t45.5 -42t46 -17.5q87 0 95 151h135q0 -128 -61.5 -204.5t-164.5 -76.5z" />
    <glyph glyph-name="itilde" unicode="&#x129;" horiz-adv-x="504" 
d="M166 0v1078h172v-1078h-172zM114 1388q-53 0 -75.5 -36t-22.5 -121h-142q0 136 61.5 213.5t170.5 77.5q44 0 82.5 -16t64.5 -39t48 -46.5t44.5 -39.5t44.5 -16q53 0 75.5 36t22.5 121h142q0 -136 -61.5 -213.5t-170.5 -77.5q-44 0 -82.5 16t-64.5 39.5t-48 46.5t-44.5 39
t-44.5 16z" />
    <glyph glyph-name="Imacron" unicode="&#x12a;" horiz-adv-x="548" 
d="M364 0h-180v1443h180v-1443zM611 1620h-674v136h674v-136z" />
    <glyph glyph-name="imacron" unicode="&#x12b;" horiz-adv-x="504" 
d="M166 0v1078h172v-1078h-172zM589 1286h-674v136h674v-136z" />
    <glyph glyph-name="Ibreve" unicode="&#x12c;" horiz-adv-x="548" 
d="M364 0h-180v1443h180v-1443zM-90 1873h154q0 -79 56.5 -126t153.5 -47t153.5 47t56.5 126h154q0 -135 -98 -216.5t-266 -81.5t-266 81.5t-98 216.5z" />
    <glyph glyph-name="ibreve" unicode="&#x12d;" horiz-adv-x="504" 
d="M166 0v1078h172v-1078h-172zM-114 1556h154q0 -89 55.5 -144.5t154.5 -55.5t154.5 55.5t55.5 144.5h154q0 -145 -98 -236.5t-266 -91.5t-266 91.5t-98 236.5z" />
    <glyph glyph-name="Iogonek" unicode="&#x12e;" horiz-adv-x="548" 
d="M184 1443h180v-1443l-5 -3q-147 -88 -147 -187q0 -43 31.5 -70.5t80.5 -27.5q44 0 66 6v-134q-45 -16 -104 -16q-106 0 -174.5 57.5t-68.5 146.5q0 68 36.5 127.5t104.5 100.5v1443z" />
    <glyph glyph-name="iogonek" unicode="&#x12f;" horiz-adv-x="504" 
d="M252 1297q-50 0 -85 35.5t-35 84.5t35 84.5t85 35.5t85 -35.5t35 -84.5t-35 -84.5t-85 -35.5zM166 4v1074h172v-1078l-5 -3q-147 -88 -147 -187q0 -46 33 -72t79 -26q42 0 66 6v-134q-46 -16 -104 -16q-109 0 -176 58.5t-67 145.5q0 144 149 232z" />
    <glyph glyph-name="Idotaccent" unicode="&#x130;" horiz-adv-x="548" 
d="M364 0h-180v1443h180v-1443zM274 1575q-50 0 -85.5 35.5t-35.5 85.5t35.5 85.5t85.5 35.5t85.5 -35.5t35.5 -85.5t-35.5 -85.5t-85.5 -35.5z" />
    <glyph glyph-name="dotlessi" unicode="&#x131;" horiz-adv-x="504" 
d="M166 0v1078h172v-1078h-172z" />
    <glyph glyph-name="u0132" unicode="&#x132;" horiz-adv-x="1650" 
d="M364 0h-180v1443h180v-1443zM634 337h179q3 -91 67 -148t165 -57q116 0 178.5 69.5t62.5 201.5v1040h180v-1041q0 -206 -112 -321t-308 -115q-182 0 -297 103t-115 268z" />
    <glyph glyph-name="u0133" unicode="&#x133;" horiz-adv-x="1032" 
d="M166 0v1078h172v-1078h-172zM252 1297q-50 0 -85 35.5t-35 84.5t35 84.5t85 35.5t85 -35.5t35 -84.5t-35 -84.5t-85 -35.5zM854 1078v-1131q0 -166 -80 -241.5t-250 -75.5h-30v147h26q90 0 126 38t36 129v1134h172zM768 1297q-50 0 -85 35.5t-35 84.5t35 84.5t85 35.5
t85 -35.5t35 -84.5t-35 -84.5t-85 -35.5z" />
    <glyph glyph-name="Jcircumflex" unicode="&#x134;" horiz-adv-x="1102" 
d="M86 337h179q3 -91 67 -148t165 -57q116 0 178.5 69.5t62.5 201.5v1040h180v-1041q0 -206 -112 -321t-308 -115q-182 0 -297 103t-115 268zM910 1873l300 -298h-202l-172 177h-16l-172 -177h-202l300 298h164z" />
    <glyph glyph-name="jcircumflex" unicode="&#x135;" horiz-adv-x="504" 
d="M332 1078v-1131q0 -166 -80 -241.5t-250 -75.5h-30v147h26q90 0 126 38t36 129v1134h172zM355 1568l282 -340h-198l-177 227h-16l-177 -227h-198l282 340h202z" />
    <glyph glyph-name="Kcommaaccent" unicode="&#x136;" horiz-adv-x="1349" 
d="M364 0h-180v1443h180v-701h16l632 701h226l-577 -623l630 -820h-233l-521 695l-173 -191v-504zM656 -518h-167l102 377h182z" />
    <glyph glyph-name="kcommaaccent" unicode="&#x137;" horiz-adv-x="1112" 
d="M360 607l468 471h211l-464 -462l495 -616h-219l-404 505l-103 -96v-409h-172v1506h172v-899h16zM606 -518h-167l102 377h182z" />
    <glyph glyph-name="Lacute" unicode="&#x139;" horiz-adv-x="1163" 
d="M1060 162v-162h-876v1443h180v-1281h696zM168 1575l310 298h226l-332 -298h-204z" />
    <glyph glyph-name="lacute" unicode="&#x13a;" horiz-adv-x="516" 
d="M172 0v1506h172v-1506h-172zM152 1638l310 298h226l-332 -298h-204z" />
    <glyph glyph-name="Lcommaaccent" unicode="&#x13b;" horiz-adv-x="1163" 
d="M1060 162v-162h-876v1443h180v-1281h696zM625 -518h-167l102 377h182z" />
    <glyph glyph-name="lcommaaccent" unicode="&#x13c;" horiz-adv-x="516" 
d="M172 0v1506h172v-1506h-172zM261 -518h-167l102 377h182z" />
    <glyph glyph-name="Lcaron" unicode="&#x13d;" horiz-adv-x="1163" 
d="M589 1443h170l-50 -488h-120v488zM1060 162v-162h-876v1443h180v-1281h696z" />
    <glyph glyph-name="lcaron" unicode="&#x13e;" horiz-adv-x="645" 
d="M495 1506h170l-50 -488h-120v488zM172 0v1506h172v-1506h-172z" />
    <glyph glyph-name="Lslash" unicode="&#x141;" horiz-adv-x="1163" 
d="M364 162h696v-162h-876v719l-166 -76v143l166 76v581h180v-499l292 133v-143l-292 -133v-639z" />
    <glyph glyph-name="lslash" unicode="&#x142;" horiz-adv-x="516" 
d="M472 994v-143l-128 -61v-790h-172v707l-128 -61v143l128 61v656h172v-573z" />
    <glyph glyph-name="Nacute" unicode="&#x143;" horiz-adv-x="1520" 
d="M362 0h-178v1443h175l783 -1123h16v1123h178v-1443h-175l-783 1119h-16v-1119zM654 1575l310 298h226l-332 -298h-204z" />
    <glyph glyph-name="nacute" unicode="&#x144;" horiz-adv-x="1195" 
d="M162 0v1078h164v-170h16q86 189 324 189q181 0 279 -103.5t98 -295.5v-698h-172v656q0 145 -62.5 215.5t-191.5 70.5q-130 0 -206.5 -81.5t-76.5 -222.5v-638h-172zM489 1263l252 338h220l-278 -338h-194z" />
    <glyph glyph-name="Ncommaaccent" unicode="&#x145;" horiz-adv-x="1520" 
d="M362 0h-178v1443h175l783 -1123h16v1123h178v-1443h-175l-783 1119h-16v-1119zM763 -518h-167l102 377h182z" />
    <glyph glyph-name="ncommaaccent" unicode="&#x146;" horiz-adv-x="1195" 
d="M162 0v1078h164v-170h16q86 189 324 189q181 0 279 -103.5t98 -295.5v-698h-172v656q0 145 -62.5 215.5t-191.5 70.5q-130 0 -206.5 -81.5t-76.5 -222.5v-638h-172zM606 -518h-167l102 377h182z" />
    <glyph glyph-name="Ncaron" unicode="&#x147;" horiz-adv-x="1520" 
d="M362 0h-178v1443h175l783 -1123h16v1123h178v-1443h-175l-783 1119h-16v-1119zM842 1575h-164l-300 298h202l172 -177h16l172 177h202z" />
    <glyph glyph-name="ncaron" unicode="&#x148;" horiz-adv-x="1195" 
d="M162 0v1078h164v-170h16q86 189 324 189q181 0 279 -103.5t98 -295.5v-698h-172v656q0 145 -62.5 215.5t-191.5 70.5q-130 0 -206.5 -81.5t-76.5 -222.5v-638h-172zM704 1228h-202l-282 340h198l177 -227h16l177 227h198z" />
    <glyph glyph-name="Omacron" unicode="&#x14c;" horiz-adv-x="1579" 
d="M791 1477q307 0 483.5 -203.5t176.5 -551.5t-176.5 -552t-483.5 -204q-309 0 -486 204t-177 552t178.5 551.5t484.5 203.5zM791 1311q-220 0 -349 -159t-129 -430t127.5 -430.5t350.5 -159.5q221 0 348 160t127 430q0 272 -127 430.5t-348 158.5zM1128 1620h-674v136h674
v-136z" />
    <glyph glyph-name="omacron" unicode="&#x14d;" horiz-adv-x="1210" 
d="M605 136q153 0 236 105.5t83 297.5t-83 297.5t-236 105.5t-236 -105.5t-83 -297.5t83 -297.5t236 -105.5zM605 -19q-230 0 -363.5 149.5t-133.5 408.5q0 260 133 409t364 149t364 -149t133 -409q0 -259 -133.5 -408.5t-363.5 -149.5zM942 1286h-674v136h674v-136z" />
    <glyph glyph-name="Obreve" unicode="&#x14e;" horiz-adv-x="1579" 
d="M791 1477q307 0 483.5 -203.5t176.5 -551.5t-176.5 -552t-483.5 -204q-309 0 -486 204t-177 552t178.5 551.5t484.5 203.5zM791 1311q-220 0 -349 -159t-129 -430t127.5 -430.5t350.5 -159.5q221 0 348 160t127 430q0 272 -127 430.5t-348 158.5zM427 1873h154
q0 -79 56.5 -126t153.5 -47t153.5 47t56.5 126h154q0 -135 -98 -216.5t-266 -81.5t-266 81.5t-98 216.5z" />
    <glyph glyph-name="obreve" unicode="&#x14f;" horiz-adv-x="1210" 
d="M605 136q153 0 236 105.5t83 297.5t-83 297.5t-236 105.5t-236 -105.5t-83 -297.5t83 -297.5t236 -105.5zM605 -19q-230 0 -363.5 149.5t-133.5 408.5q0 260 133 409t364 149t364 -149t133 -409q0 -259 -133.5 -408.5t-363.5 -149.5zM239 1556h154q0 -89 55.5 -144.5
t154.5 -55.5t154.5 55.5t55.5 144.5h154q0 -145 -98 -236.5t-266 -91.5t-266 91.5t-98 236.5z" />
    <glyph glyph-name="Ohungarumlaut" unicode="&#x150;" horiz-adv-x="1579" 
d="M791 1477q307 0 483.5 -203.5t176.5 -551.5t-176.5 -552t-483.5 -204q-309 0 -486 204t-177 552t178.5 551.5t484.5 203.5zM791 1311q-220 0 -349 -159t-129 -430t127.5 -430.5t350.5 -159.5q221 0 348 160t127 430q0 272 -127 430.5t-348 158.5zM841 1575l310 298h226
l-332 -298h-204zM427 1575l310 298h226l-332 -298h-204z" />
    <glyph glyph-name="ohungarumlaut" unicode="&#x151;" horiz-adv-x="1210" 
d="M605 136q153 0 236 105.5t83 297.5t-83 297.5t-236 105.5t-236 -105.5t-83 -297.5t83 -297.5t236 -105.5zM605 -19q-230 0 -363.5 149.5t-133.5 408.5q0 260 133 409t364 149t364 -149t133 -409q0 -259 -133.5 -408.5t-363.5 -149.5zM670 1263l252 338h210l-280 -338
h-182zM270 1263l252 338h210l-280 -338h-182z" />
    <glyph glyph-name="OE" unicode="&#x152;" horiz-adv-x="2325" 
d="M801 1311q-226 0 -357 -158t-131 -431q0 -275 130.5 -432.5t357.5 -157.5q217 0 342 157.5t125 432.5q0 274 -124.5 431.5t-342.5 157.5zM1289 0v247h-16q-66 -126 -201.5 -203.5t-290.5 -77.5q-301 0 -477 203.5t-176 552.5q0 347 176.5 551t476.5 204q152 0 288.5 -75
t203.5 -196h16v237h894v-162h-732v-463h695v-160h-695v-496h732v-162h-894z" />
    <glyph glyph-name="oe" unicode="&#x153;" horiz-adv-x="1987" 
d="M1411 -19q-134 0 -241.5 62.5t-148.5 165.5h-16q-42 -103 -151.5 -165.5t-248.5 -62.5q-231 0 -364 149.5t-133 408.5t133 408.5t364 149.5q135 0 241 -61.5t160 -170.5h16q54 109 157 170.5t232 61.5q218 0 343 -144.5t125 -396.5v-66h-775v-8q7 -160 90.5 -254
t220.5 -94q210 0 278 145h172q-40 -140 -159.5 -219t-294.5 -79zM1409 946q-128 0 -211.5 -86.5t-93.5 -230.5h594q-3 143 -82 230t-207 87zM605 136q152 0 235.5 105.5t83.5 297.5q0 193 -83.5 298t-235.5 105t-235.5 -105t-83.5 -298q0 -192 83.5 -297.5t235.5 -105.5z
" />
    <glyph glyph-name="Racute" unicode="&#x154;" horiz-adv-x="1338" 
d="M364 1283v-552h355q139 0 214.5 71.5t75.5 204.5q0 130 -79 203t-219 73h-347zM364 571v-571h-180v1443h551q209 0 334.5 -117.5t125.5 -312.5q0 -151 -77 -261t-213 -153l334 -599h-211l-309 571h-355zM503 1575l310 298h226l-332 -298h-204z" />
    <glyph glyph-name="racute" unicode="&#x155;" horiz-adv-x="765" 
d="M162 0v1078h164v-160h16q24 79 108 129t191 50q49 0 86 -5v-172q-35 10 -110 10q-123 0 -203 -74t-80 -188v-668h-172zM264 1263l252 338h220l-278 -338h-194z" />
    <glyph glyph-name="Rcommaaccent" unicode="&#x156;" horiz-adv-x="1338" 
d="M364 1283v-552h355q139 0 214.5 71.5t75.5 204.5q0 130 -79 203t-219 73h-347zM364 571v-571h-180v1443h551q209 0 334.5 -117.5t125.5 -312.5q0 -151 -77 -261t-213 -153l334 -599h-211l-309 571h-355zM612 -518h-167l102 377h182z" />
    <glyph glyph-name="rcommaaccent" unicode="&#x157;" horiz-adv-x="765" 
d="M162 0v1078h164v-160h16q24 79 108 129t191 50q49 0 86 -5v-172q-35 10 -110 10q-123 0 -203 -74t-80 -188v-668h-172zM251 -518h-167l102 377h182z" />
    <glyph glyph-name="Rcaron" unicode="&#x158;" horiz-adv-x="1338" 
d="M364 1283v-552h355q139 0 214.5 71.5t75.5 204.5q0 130 -79 203t-219 73h-347zM364 571v-571h-180v1443h551q209 0 334.5 -117.5t125.5 -312.5q0 -151 -77 -261t-213 -153l334 -599h-211l-309 571h-355zM691 1575h-164l-300 298h202l172 -177h16l172 177h202z" />
    <glyph glyph-name="rcaron" unicode="&#x159;" horiz-adv-x="765" 
d="M162 0v1078h164v-160h16q24 79 108 129t191 50q49 0 86 -5v-172q-35 10 -110 10q-123 0 -203 -74t-80 -188v-668h-172zM479 1228h-202l-282 340h198l177 -227h16l177 227h198z" />
    <glyph glyph-name="Sacute" unicode="&#x15a;" horiz-adv-x="1305" 
d="M115 377h182q17 -113 117 -180t254 -67q146 0 241.5 70.5t95.5 177.5q0 92 -70 152.5t-219 98.5l-185 48q-196 49 -285 142t-89 247q0 184 140.5 297.5t369.5 113.5q209 0 350 -112t152 -287h-181q-19 111 -105.5 173.5t-221.5 62.5q-144 0 -231.5 -66.5t-87.5 -175.5
q0 -85 64.5 -138t213.5 -91l151 -40q224 -56 321.5 -150t97.5 -253q0 -199 -146 -316.5t-393 -117.5q-229 0 -375.5 112t-160.5 299zM561 1575l310 298h226l-332 -298h-204z" />
    <glyph glyph-name="sacute" unicode="&#x15b;" horiz-adv-x="1072" 
d="M137 783q0 134 115 224t287 90q169 0 279 -78t127 -211h-170q-18 66 -79.5 104.5t-157.5 38.5q-97 0 -162.5 -45t-65.5 -116q0 -55 45.5 -91.5t141.5 -59.5l166 -40q154 -37 227.5 -107t73.5 -185q0 -143 -123 -234.5t-309 -91.5q-180 0 -295 80t-129 214h177
q22 -70 87 -109.5t166 -39.5q109 0 179 47t70 121q0 110 -171 152l-185 45q-153 37 -223.5 106.5t-70.5 185.5zM425 1263l252 338h220l-278 -338h-194z" />
    <glyph glyph-name="Scircumflex" unicode="&#x15c;" horiz-adv-x="1305" 
d="M115 377h182q17 -113 117 -180t254 -67q146 0 241.5 70.5t95.5 177.5q0 92 -70 152.5t-219 98.5l-185 48q-196 49 -285 142t-89 247q0 184 140.5 297.5t369.5 113.5q209 0 350 -112t152 -287h-181q-19 111 -105.5 173.5t-221.5 62.5q-144 0 -231.5 -66.5t-87.5 -175.5
q0 -85 64.5 -138t213.5 -91l151 -40q224 -56 321.5 -150t97.5 -253q0 -199 -146 -316.5t-393 -117.5q-229 0 -375.5 112t-160.5 299zM749 1873l300 -298h-202l-172 177h-16l-172 -177h-202l300 298h164z" />
    <glyph glyph-name="scircumflex" unicode="&#x15d;" horiz-adv-x="1072" 
d="M137 783q0 134 115 224t287 90q169 0 279 -78t127 -211h-170q-18 66 -79.5 104.5t-157.5 38.5q-97 0 -162.5 -45t-65.5 -116q0 -55 45.5 -91.5t141.5 -59.5l166 -40q154 -37 227.5 -107t73.5 -185q0 -143 -123 -234.5t-309 -91.5q-180 0 -295 80t-129 214h177
q22 -70 87 -109.5t166 -39.5q109 0 179 47t70 121q0 110 -171 152l-185 45q-153 37 -223.5 106.5t-70.5 185.5zM640 1568l282 -340h-198l-177 227h-16l-177 -227h-198l282 340h202z" />
    <glyph glyph-name="Scedilla" unicode="&#x15e;" horiz-adv-x="1305" 
d="M620 843l151 -40q224 -56 321.5 -150t97.5 -253q0 -183 -125.5 -298.5t-341.5 -132.5l-43 -111q102 0 158.5 -43t56.5 -120q0 -85 -65.5 -137t-178.5 -52q-85 0 -146 18v108q48 -14 122 -14q119 0 119 73q0 35 -35 50t-114 15h-59v84l51 128q-205 16 -333 126t-141 283
h182q17 -113 117 -180t254 -67q146 0 241.5 70.5t95.5 177.5q0 92 -70 152.5t-219 98.5l-185 48q-196 49 -285 142t-89 247q0 184 140.5 297.5t369.5 113.5q209 0 350 -112t152 -287h-181q-19 111 -105.5 173.5t-221.5 62.5q-144 0 -231.5 -66.5t-87.5 -175.5
q0 -85 64.5 -138t213.5 -91z" />
    <glyph glyph-name="scedilla" unicode="&#x15f;" horiz-adv-x="1072" 
d="M497 639l166 -40q154 -37 227.5 -107t73.5 -185q0 -127 -98.5 -214.5t-255.5 -106.5l-49 -128q102 0 158.5 -43t56.5 -120q0 -85 -65.5 -137t-178.5 -52q-84 0 -146 18v108q48 -14 122 -14q119 0 119 73q0 35 -35 50t-114 15h-59v84l56 143q-157 13 -255.5 91t-111.5 201
h177q22 -70 87 -109.5t166 -39.5q109 0 179 47t70 121q0 110 -171 152l-185 45q-153 37 -223.5 106.5t-70.5 185.5q0 134 115 224t287 90q169 0 279 -78t127 -211h-170q-18 66 -79.5 104.5t-157.5 38.5q-97 0 -162.5 -45t-65.5 -116q0 -55 45.5 -91.5t141.5 -59.5z" />
    <glyph glyph-name="Scaron" unicode="&#x160;" horiz-adv-x="1305" 
d="M115 377h182q17 -113 117 -180t254 -67q146 0 241.5 70.5t95.5 177.5q0 92 -70 152.5t-219 98.5l-185 48q-196 49 -285 142t-89 247q0 184 140.5 297.5t369.5 113.5q209 0 350 -112t152 -287h-181q-19 111 -105.5 173.5t-221.5 62.5q-144 0 -231.5 -66.5t-87.5 -175.5
q0 -85 64.5 -138t213.5 -91l151 -40q224 -56 321.5 -150t97.5 -253q0 -199 -146 -316.5t-393 -117.5q-229 0 -375.5 112t-160.5 299zM749 1575h-164l-300 298h202l172 -177h16l172 177h202z" />
    <glyph glyph-name="scaron" unicode="&#x161;" horiz-adv-x="1072" 
d="M137 783q0 134 115 224t287 90q169 0 279 -78t127 -211h-170q-18 66 -79.5 104.5t-157.5 38.5q-97 0 -162.5 -45t-65.5 -116q0 -55 45.5 -91.5t141.5 -59.5l166 -40q154 -37 227.5 -107t73.5 -185q0 -143 -123 -234.5t-309 -91.5q-180 0 -295 80t-129 214h177
q22 -70 87 -109.5t166 -39.5q109 0 179 47t70 121q0 110 -171 152l-185 45q-153 37 -223.5 106.5t-70.5 185.5zM640 1228h-202l-282 340h198l177 -227h16l177 227h198z" />
    <glyph glyph-name="Tcedilla" unicode="&#x162;" horiz-adv-x="1298" 
d="M739 1281v-1281l-55 -142q102 0 158.5 -43t56.5 -120q0 -85 -65.5 -137t-178.5 -52q-85 0 -146 18v108q48 -14 122 -14q119 0 119 73q0 35 -35 50t-114 15h-59v84l63 160h-46v1281h-465v162h1110v-162h-465z" />
    <glyph glyph-name="tcedilla" unicode="&#x163;" horiz-adv-x="744" 
d="M411 -494q-85 0 -146 18v108q48 -14 122 -14q119 0 119 73q0 35 -35 50t-114 15h-59v84l70 180q-70 29 -102 92t-32 168v654h-174v144h174v279h172v-279h240v-144h-240v-610q0 -95 38 -138t122 -43q35 0 78 4v-145q-57 -10 -99 -10q-19 0 -53 2l-52 -136q102 0 158.5 -43
t56.5 -120q0 -85 -65.5 -137t-178.5 -52z" />
    <glyph glyph-name="Tcaron" unicode="&#x164;" horiz-adv-x="1298" 
d="M739 0h-180v1281h-465v162h1110v-162h-465v-1281zM731 1575h-164l-300 298h202l172 -177h16l172 177h202z" />
    <glyph glyph-name="tcaron" unicode="&#x165;" horiz-adv-x="744" 
d="M659 1232h-120v488h170zM234 1357h172v-279h240v-144h-240v-610q0 -95 38 -138t122 -43q37 0 80 4v-145q-57 -10 -101 -10q-167 0 -239 67t-72 221v654h-174v144h174v279z" />
    <glyph glyph-name="Tbar" unicode="&#x166;" horiz-adv-x="1298" 
d="M1204 1281h-465v-488h305v-143h-305v-650h-180v650h-305v143h305v488h-465v162h1110v-162z" />
    <glyph glyph-name="tbar" unicode="&#x167;" horiz-adv-x="739" 
d="M655 495h-249v-171q0 -95 38 -138t122 -43q37 0 80 4v-145q-57 -10 -101 -10q-167 0 -239 67t-72 221v215h-178v144h178v295h-174v144h174v279h172v-279h240v-144h-240v-295h249v-144z" />
    <glyph glyph-name="Utilde" unicode="&#x168;" horiz-adv-x="1524" 
d="M369 1443v-935q0 -167 104.5 -271.5t288.5 -104.5t288.5 104.5t104.5 271.5v935h180v-947q0 -235 -154.5 -382.5t-418.5 -147.5t-418.5 147.5t-154.5 382.5v947h180zM912 1575q-45 0 -82.5 17.5t-62.5 42t-47.5 49t-49 42t-54.5 17.5q-45 0 -68 -34.5t-26 -116.5h-136
q0 133 60.5 207t165.5 74q48 0 88.5 -17.5t67 -42t49 -49t45.5 -42t46 -17.5q87 0 95 151h135q0 -128 -61.5 -204.5t-164.5 -76.5z" />
    <glyph glyph-name="utilde" unicode="&#x169;" horiz-adv-x="1196" 
d="M1034 1078v-1078h-164v169h-16q-41 -91 -126 -139.5t-208 -48.5q-180 0 -274 103t-94 296v698h172v-656q0 -147 58 -215.5t186 -68.5q141 0 217.5 79.5t76.5 222.5v638h172zM455 1388q-53 0 -75.5 -36t-22.5 -121h-142q0 136 61.5 213.5t170.5 77.5q44 0 82.5 -16
t64.5 -39t48 -46.5t44.5 -39.5t44.5 -16q53 0 75.5 36t22.5 121h142q0 -136 -61.5 -213.5t-170.5 -77.5q-44 0 -82.5 16t-64.5 39.5t-48 46.5t-44.5 39t-44.5 16z" />
    <glyph glyph-name="Umacron" unicode="&#x16a;" horiz-adv-x="1524" 
d="M369 1443v-935q0 -167 104.5 -271.5t288.5 -104.5t288.5 104.5t104.5 271.5v935h180v-947q0 -235 -154.5 -382.5t-418.5 -147.5t-418.5 147.5t-154.5 382.5v947h180zM1099 1620h-674v136h674v-136z" />
    <glyph glyph-name="umacron" unicode="&#x16b;" horiz-adv-x="1196" 
d="M1034 1078v-1078h-164v169h-16q-41 -91 -126 -139.5t-208 -48.5q-180 0 -274 103t-94 296v698h172v-656q0 -147 58 -215.5t186 -68.5q141 0 217.5 79.5t76.5 222.5v638h172zM930 1286h-674v136h674v-136z" />
    <glyph glyph-name="Ubreve" unicode="&#x16c;" horiz-adv-x="1524" 
d="M369 1443v-935q0 -167 104.5 -271.5t288.5 -104.5t288.5 104.5t104.5 271.5v935h180v-947q0 -235 -154.5 -382.5t-418.5 -147.5t-418.5 147.5t-154.5 382.5v947h180zM398 1873h154q0 -79 56.5 -126t153.5 -47t153.5 47t56.5 126h154q0 -135 -98 -216.5t-266 -81.5
t-266 81.5t-98 216.5z" />
    <glyph glyph-name="ubreve" unicode="&#x16d;" horiz-adv-x="1196" 
d="M1034 1078v-1078h-164v169h-16q-41 -91 -126 -139.5t-208 -48.5q-180 0 -274 103t-94 296v698h172v-656q0 -147 58 -215.5t186 -68.5q141 0 217.5 79.5t76.5 222.5v638h172zM227 1556h154q0 -89 55.5 -144.5t154.5 -55.5t154.5 55.5t55.5 144.5h154q0 -145 -98 -236.5
t-266 -91.5t-266 91.5t-98 236.5z" />
    <glyph glyph-name="Uring" unicode="&#x16e;" horiz-adv-x="1524" 
d="M369 1443v-935q0 -167 104.5 -271.5t288.5 -104.5t288.5 104.5t104.5 271.5v935h180v-947q0 -235 -154.5 -382.5t-418.5 -147.5t-418.5 147.5t-154.5 382.5v947h180zM762 1551q-83 0 -141 57t-58 140t58 140t141 57t141 -57t58 -140t-58 -140t-141 -57zM762 1643
q46 0 75.5 30t29.5 75q0 46 -29.5 75.5t-75.5 29.5t-75.5 -29.5t-29.5 -75.5q0 -45 29.5 -75t75.5 -30z" />
    <glyph glyph-name="uring" unicode="&#x16f;" horiz-adv-x="1196" 
d="M1034 1078v-1078h-164v169h-16q-41 -91 -126 -139.5t-208 -48.5q-180 0 -274 103t-94 296v698h172v-656q0 -147 58 -215.5t186 -68.5q141 0 217.5 79.5t76.5 222.5v638h172zM593 1228q-96 0 -164 66.5t-68 162.5t68 162.5t164 66.5t164 -66.5t68 -162.5t-68 -162.5
t-164 -66.5zM593 1334q52 0 87 35t35 88t-35 88t-87 35t-87 -35t-35 -88t35 -88t87 -35z" />
    <glyph glyph-name="Uhungarumlaut" unicode="&#x170;" horiz-adv-x="1524" 
d="M369 1443v-935q0 -167 104.5 -271.5t288.5 -104.5t288.5 104.5t104.5 271.5v935h180v-947q0 -235 -154.5 -382.5t-418.5 -147.5t-418.5 147.5t-154.5 382.5v947h180zM812 1575l310 298h226l-332 -298h-204zM398 1575l310 298h226l-332 -298h-204z" />
    <glyph glyph-name="uhungarumlaut" unicode="&#x171;" horiz-adv-x="1196" 
d="M1034 1078v-1078h-164v169h-16q-41 -91 -126 -139.5t-208 -48.5q-180 0 -274 103t-94 296v698h172v-656q0 -147 58 -215.5t186 -68.5q141 0 217.5 79.5t76.5 222.5v638h172zM658 1263l252 338h210l-280 -338h-182zM258 1263l252 338h210l-280 -338h-182z" />
    <glyph glyph-name="Uogonek" unicode="&#x172;" horiz-adv-x="1524" 
d="M1023 -432q-109 0 -176 58.5t-67 145.5q0 123 131 208v16q-21 -13 -65 -21.5t-84 -8.5q-259 0 -416 145t-157 385v947h180v-935q0 -172 107 -274t286 -102t286 102t107 274v935h180v-947q0 -136 -58.5 -247.5t-194.5 -234.5q-133 -118 -133 -204q0 -46 33 -72t79 -26
q42 0 66 6v-134q-46 -16 -104 -16z" />
    <glyph glyph-name="uogonek" unicode="&#x173;" horiz-adv-x="1196" 
d="M679 -228q0 81 54 145.5t137 94.5v157h-16q-41 -91 -126 -139.5t-208 -48.5q-180 0 -274 103t-94 296v698h172v-656q0 -147 58 -215.5t186 -68.5q141 0 217.5 79.5t76.5 222.5v638h172v-1078l-12 -5q-81 -33 -127.5 -82t-46.5 -103q0 -43 31.5 -70.5t80.5 -27.5
q44 0 66 6v-134q-45 -16 -104 -16q-106 0 -174.5 57.5t-68.5 146.5z" />
    <glyph glyph-name="Wcircumflex" unicode="&#x174;" horiz-adv-x="1982" 
d="M985 1139l-332 -1139h-170l-393 1443h188l287 -1173h12l323 1173h182l323 -1173h12l287 1173h188l-393 -1443h-170l-332 1139h-12zM1073 1873l300 -298h-202l-172 177h-16l-172 -177h-202l300 298h164z" />
    <glyph glyph-name="wcircumflex" unicode="&#x175;" horiz-adv-x="1586" 
d="M1518 1078l-302 -1078h-175l-241 834h-16l-240 -834h-174l-302 1078h174l212 -862h16l241 862h165l241 -862h16l212 862h173zM894 1568l282 -340h-198l-177 227h-16l-177 -227h-198l282 340h202z" />
    <glyph glyph-name="Ycircumflex" unicode="&#x176;" horiz-adv-x="1344" 
d="M762 0h-180v621l-512 822h205l389 -641h16l389 641h205l-512 -822v-621zM754 1873l300 -298h-202l-172 177h-16l-172 -177h-202l300 298h164z" />
    <glyph glyph-name="ycircumflex" unicode="&#x177;" horiz-adv-x="1112" 
d="M254 -390q-41 0 -77 6v147q26 -5 72 -5q75 0 119.5 40t78.5 137l20 64l-399 1079h186l296 -887h16l295 887h183l-421 -1144q-69 -187 -147 -255.5t-222 -68.5zM652 1568l282 -340h-198l-177 227h-16l-177 -227h-198l282 340h202z" />
    <glyph glyph-name="Ydieresis" unicode="&#x178;" horiz-adv-x="1344" 
d="M762 0h-180v621l-512 822h205l389 -641h16l389 641h205l-512 -822v-621zM470 1575q-50 0 -85.5 35.5t-35.5 85.5t35.5 85.5t85.5 35.5t85.5 -35.5t35.5 -85.5t-35.5 -85.5t-85.5 -35.5zM874 1575q-50 0 -85.5 35.5t-35.5 85.5t35.5 85.5t85.5 35.5t85.5 -35.5t35.5 -85.5
t-35.5 -85.5t-85.5 -35.5z" />
    <glyph glyph-name="Zacute" unicode="&#x179;" horiz-adv-x="1355" 
d="M144 0v128l817 1137v16h-789v162h1022v-128l-813 -1137v-16h830v-162h-1067zM572 1575l310 298h226l-332 -298h-204z" />
    <glyph glyph-name="zacute" unicode="&#x17a;" horiz-adv-x="1104" 
d="M137 0v126l622 792v16h-621v144h826v-129l-619 -789v-16h622v-144h-830zM431 1263l252 338h220l-278 -338h-194z" />
    <glyph glyph-name="Zdotaccent" unicode="&#x17b;" horiz-adv-x="1355" 
d="M144 0v128l817 1137v16h-789v162h1022v-128l-813 -1137v-16h830v-162h-1067zM678 1575q-50 0 -85.5 35.5t-35.5 85.5t35.5 85.5t85.5 35.5t85.5 -35.5t35.5 -85.5t-35.5 -85.5t-85.5 -35.5z" />
    <glyph glyph-name="zdotaccent" unicode="&#x17c;" horiz-adv-x="1104" 
d="M137 0v126l622 792v16h-621v144h826v-129l-619 -789v-16h622v-144h-830zM545 1287q-53 0 -90.5 37.5t-37.5 90.5q0 52 37.5 89.5t90.5 37.5t90.5 -37.5t37.5 -89.5q0 -53 -37.5 -90.5t-90.5 -37.5z" />
    <glyph glyph-name="Zcaron" unicode="&#x17d;" horiz-adv-x="1355" 
d="M144 0v128l817 1137v16h-789v162h1022v-128l-813 -1137v-16h830v-162h-1067zM760 1575h-164l-300 298h202l172 -177h16l172 177h202z" />
    <glyph glyph-name="zcaron" unicode="&#x17e;" horiz-adv-x="1104" 
d="M137 0v126l622 792v16h-621v144h826v-129l-619 -789v-16h622v-144h-830zM646 1228h-202l-282 340h198l177 -227h16l177 227h198z" />
    <glyph glyph-name="florin" unicode="&#x192;" horiz-adv-x="1328" 
d="M295 -24q-110 0 -218 27v167q99 -35 202 -35q102 0 161.5 47t74.5 153l57 395h-336v144h356l33 227q26 177 130.5 271.5t275.5 94.5q131 0 212 -21v-157q-72 22 -190 22q-224 0 -256 -221l-31 -216h369v-144h-390l-58 -408q-26 -180 -123 -263t-269 -83z" />
    <glyph glyph-name="Ohorn" unicode="&#x1a0;" horiz-adv-x="1603" 
d="M1451 722q0 -348 -176.5 -552t-483.5 -204q-309 0 -486 204t-177 552t178.5 551.5t484.5 203.5q74 0 207.5 -20t208.5 -20q62 0 85.5 21t23.5 72v140h159v-192q0 -79 -52.5 -125t-129.5 -46h-59v-12q97 -67 157 -226.5t60 -346.5zM791 1311q-220 0 -349 -159t-129 -430
t127.5 -430.5t350.5 -159.5q221 0 348 160t127 430q0 272 -127 430.5t-348 158.5z" />
    <glyph glyph-name="ohorn" unicode="&#x1a1;" horiz-adv-x="1254" 
d="M1102 539q0 -259 -133 -408.5t-364 -149.5t-364 149.5t-133 408.5t133 408.5t364 149.5q66 0 143.5 -12.5t129.5 -12.5q63 0 86 20.5t23 72.5v137h159v-189q0 -75 -43.5 -117.5t-100.5 -42.5h-56v-7q71 -50 113.5 -157t42.5 -250zM605 136q152 0 235.5 105.5t83.5 297.5
q0 193 -83.5 298t-235.5 105t-235.5 -105t-83.5 -298q0 -192 83.5 -297.5t235.5 -105.5z" />
    <glyph glyph-name="Uhorn" unicode="&#x1af;" horiz-adv-x="1659" 
d="M762 -34q-259 0 -416 145t-157 385v947h180v-935q0 -172 107 -274t286 -102t286 102t107 274v935h182q47 0 69 21.5t22 66.5v159h159v-189q0 -90 -55 -138t-147 -48h-50v-819q0 -240 -157 -385t-416 -145z" />
    <glyph glyph-name="uhorn" unicode="&#x1b0;" horiz-adv-x="1316" 
d="M520 -19q-180 0 -274 103t-94 296v698h172v-656q0 -147 58 -215.5t186 -68.5q141 0 217.5 79.5t76.5 222.5v638h144q47 0 69 21.5t22 66.5v152h159v-182q0 -90 -55 -138t-147 -48h-20v-950h-164v169h-16q-41 -91 -126 -139.5t-208 -48.5z" />
    <glyph glyph-name="u01C4" unicode="&#x1c4;" horiz-adv-x="2842" 
d="M184 1443h495q321 0 501 -190.5t180 -530.5q0 -341 -179.5 -531.5t-501.5 -190.5h-495v1443zM364 1281v-1119h303q241 0 375 147t134 411q0 265 -134.5 413t-374.5 148h-303zM1631 0v128l817 1137v16h-789v162h1022v-128l-813 -1137v-16h830v-162h-1067zM2247 1575h-164
l-300 298h202l172 -177h16l172 177h202z" />
    <glyph glyph-name="u01C5" unicode="&#x1c5;" horiz-adv-x="2591" 
d="M184 1443h495q321 0 501 -190.5t180 -530.5q0 -341 -179.5 -531.5t-501.5 -190.5h-495v1443zM364 1281v-1119h303q241 0 375 147t134 411q0 265 -134.5 413t-374.5 148h-303zM1624 0v126l622 792v16h-621v144h826v-129l-619 -789v-16h622v-144h-830zM2133 1228h-202
l-282 340h198l177 -227h16l177 227h198z" />
    <glyph glyph-name="u01C6" unicode="&#x1c6;" horiz-adv-x="2362" 
d="M561 -19q-207 0 -330 152t-123 406q0 253 123.5 405.5t329.5 152.5q113 0 202.5 -50.5t135.5 -138.5h15v598h172v-1506h-164v172h-16q-51 -90 -142 -140.5t-203 -50.5zM601 942q-147 0 -231 -107.5t-84 -295.5q0 -189 83.5 -296t231.5 -107q147 0 232 108t85 295
q0 185 -85.5 294t-231.5 109zM1395 0v126l622 792v16h-621v144h826v-129l-619 -789v-16h622v-144h-830zM1904 1228h-202l-282 340h198l177 -227h16l177 227h198z" />
    <glyph glyph-name="u01C7" unicode="&#x1c7;" horiz-adv-x="2265" 
d="M1060 162v-162h-876v1443h180v-1281h696zM1249 337h179q3 -91 67 -148t165 -57q116 0 178.5 69.5t62.5 201.5v1040h180v-1041q0 -206 -112 -321t-308 -115q-182 0 -297 103t-115 268z" />
    <glyph glyph-name="u01C8" unicode="&#x1c8;" horiz-adv-x="1679" 
d="M1060 162v-162h-876v1443h180v-1281h696zM1501 1078v-1131q0 -166 -80 -241.5t-250 -75.5h-30v147h26q90 0 126 38t36 129v1134h172zM1415 1297q-49 0 -84.5 35.5t-35.5 84.5t35.5 84.5t84.5 35.5t84.5 -35.5t35.5 -84.5t-35.5 -84.5t-84.5 -35.5z" />
    <glyph glyph-name="u01C9" unicode="&#x1c9;" horiz-adv-x="1032" 
d="M172 0v1506h172v-1506h-172zM854 1078v-1131q0 -166 -80 -241.5t-250 -75.5h-30v147h26q90 0 126 38t36 129v1134h172zM768 1297q-50 0 -85 35.5t-35 84.5t35 84.5t85 35.5t85 -35.5t35 -84.5t-35 -84.5t-85 -35.5z" />
    <glyph glyph-name="u01CA" unicode="&#x1ca;" horiz-adv-x="2622" 
d="M362 0h-178v1443h175l783 -1123h16v1123h178v-1443h-175l-783 1119h-16v-1119zM1606 337h179q3 -91 67 -148t165 -57q116 0 178.5 69.5t62.5 201.5v1040h180v-1041q0 -206 -112 -321t-308 -115q-182 0 -297 103t-115 268z" />
    <glyph glyph-name="u01CB" unicode="&#x1cb;" horiz-adv-x="2036" 
d="M362 0h-178v1443h175l783 -1123h16v1123h178v-1443h-175l-783 1119h-16v-1119zM1858 1078v-1131q0 -166 -80 -241.5t-250 -75.5h-30v147h26q90 0 126 38t36 129v1134h172zM1772 1297q-50 0 -85 35.5t-35 84.5t35 84.5t85 35.5t85 -35.5t35 -84.5t-35 -84.5t-85 -35.5z
" />
    <glyph glyph-name="u01CC" unicode="&#x1cc;" horiz-adv-x="1699" 
d="M162 0v1078h164v-170h16q86 189 324 189q181 0 279 -103.5t98 -295.5v-698h-172v656q0 145 -62.5 215.5t-191.5 70.5q-130 0 -206.5 -81.5t-76.5 -222.5v-638h-172zM1533 1078v-1131q0 -166 -80 -241.5t-250 -75.5h-30v147h26q90 0 126 38t36 129v1134h172zM1447 1297
q-49 0 -84.5 35.5t-35.5 84.5t35.5 84.5t84.5 35.5t84.5 -35.5t35.5 -84.5t-35.5 -84.5t-84.5 -35.5z" />
    <glyph glyph-name="Acaron" unicode="&#x1cd;" horiz-adv-x="1380" 
d="M1122 0l-145 413h-574l-145 -413h-189l532 1443h178l532 -1443h-189zM682 1210l-226 -644h468l-226 644h-16zM772 1575h-164l-300 298h202l172 -177h16l172 177h202z" />
    <glyph glyph-name="acaron" unicode="&#x1ce;" horiz-adv-x="1130" 
d="M494 132q133 0 220.5 77t87.5 193v99l-290 -19q-122 -8 -179 -51t-57 -125q0 -81 61 -127.5t157 -46.5zM462 -19q-159 0 -261.5 87.5t-102.5 233.5q0 144 102 226t291 93l311 19v98q0 100 -62 153t-182 53q-97 0 -161 -35t-82 -99h-174q17 129 133.5 208t289.5 79
q196 0 303 -95t107 -264v-738h-164v159h-16q-52 -86 -138 -132t-194 -46zM665 1228h-202l-282 340h198l177 -227h16l177 227h198z" />
    <glyph glyph-name="Icaron" unicode="&#x1cf;" horiz-adv-x="548" 
d="M364 0h-180v1443h180v-1443zM356 1575h-164l-300 298h202l172 -177h16l172 177h202z" />
    <glyph glyph-name="icaron" unicode="&#x1d0;" horiz-adv-x="504" 
d="M166 0v1078h172v-1078h-172zM353 1228h-202l-282 340h198l177 -227h16l177 227h198z" />
    <glyph glyph-name="Ocaron" unicode="&#x1d1;" horiz-adv-x="1579" 
d="M791 1477q307 0 483.5 -203.5t176.5 -551.5t-176.5 -552t-483.5 -204q-309 0 -486 204t-177 552t178.5 551.5t484.5 203.5zM791 1311q-220 0 -349 -159t-129 -430t127.5 -430.5t350.5 -159.5q221 0 348 160t127 430q0 272 -127 430.5t-348 158.5zM873 1575h-164l-300 298
h202l172 -177h16l172 177h202z" />
    <glyph glyph-name="ocaron" unicode="&#x1d2;" horiz-adv-x="1210" 
d="M605 136q153 0 236 105.5t83 297.5t-83 297.5t-236 105.5t-236 -105.5t-83 -297.5t83 -297.5t236 -105.5zM605 -19q-230 0 -363.5 149.5t-133.5 408.5q0 260 133 409t364 149t364 -149t133 -409q0 -259 -133.5 -408.5t-363.5 -149.5zM706 1228h-202l-282 340h198
l177 -227h16l177 227h198z" />
    <glyph glyph-name="Ucaron" unicode="&#x1d3;" horiz-adv-x="1524" 
d="M369 1443v-935q0 -167 104.5 -271.5t288.5 -104.5t288.5 104.5t104.5 271.5v935h180v-947q0 -235 -154.5 -382.5t-418.5 -147.5t-418.5 147.5t-154.5 382.5v947h180zM844 1575h-164l-300 298h202l172 -177h16l172 177h202z" />
    <glyph glyph-name="ucaron" unicode="&#x1d4;" horiz-adv-x="1196" 
d="M1034 1078v-1078h-164v169h-16q-41 -91 -126 -139.5t-208 -48.5q-180 0 -274 103t-94 296v698h172v-656q0 -147 58 -215.5t186 -68.5q141 0 217.5 79.5t76.5 222.5v638h172zM694 1228h-202l-282 340h198l177 -227h16l177 227h198z" />
    <glyph glyph-name="Udieresismacron" unicode="&#x1d5;" horiz-adv-x="1524" 
d="M369 1443v-935q0 -167 104.5 -271.5t288.5 -104.5t288.5 104.5t104.5 271.5v935h180v-947q0 -235 -154.5 -382.5t-418.5 -147.5t-418.5 147.5t-154.5 382.5v947h180zM425 1932v130h674v-130h-674zM560 1575q-49 0 -83 34t-34 83t34 83t83 34t83 -34t34 -83t-34 -83
t-83 -34zM964 1575q-49 0 -83 34t-34 83t34 83t83 34t83 -34t34 -83t-34 -83t-83 -34z" />
    <glyph glyph-name="udieresismacron" unicode="&#x1d6;" horiz-adv-x="1196" 
d="M1034 1078v-1078h-164v169h-16q-41 -91 -126 -139.5t-208 -48.5q-180 0 -274 103t-94 296v698h172v-656q0 -147 58 -215.5t186 -68.5q141 0 217.5 79.5t76.5 222.5v638h172zM391 1228q-49 0 -83 34t-34 83t34 83t83 34t83 -34t34 -83t-34 -83t-83 -34zM795 1228
q-49 0 -83 34t-34 83t34 83t83 34t83 -34t34 -83t-34 -83t-83 -34zM930 1620h-674v136h674v-136z" />
    <glyph glyph-name="Udieresisacute" unicode="&#x1d7;" horiz-adv-x="1524" 
d="M369 1443v-935q0 -167 104.5 -271.5t288.5 -104.5t288.5 104.5t104.5 271.5v935h180v-947q0 -235 -154.5 -382.5t-418.5 -147.5t-418.5 147.5t-154.5 382.5v947h180zM674 1873l230 222h227l-281 -222h-176zM560 1575q-50 0 -85.5 35.5t-35.5 85.5t35.5 85.5t85.5 35.5
t85.5 -35.5t35.5 -85.5t-35.5 -85.5t-85.5 -35.5zM964 1575q-50 0 -85.5 35.5t-35.5 85.5t35.5 85.5t85.5 35.5t85.5 -35.5t35.5 -85.5t-35.5 -85.5t-85.5 -35.5z" />
    <glyph glyph-name="udieresisacute" unicode="&#x1d8;" horiz-adv-x="1196" 
d="M1034 1078v-1078h-164v169h-16q-41 -91 -126 -139.5t-208 -48.5q-180 0 -274 103t-94 296v698h172v-656q0 -147 58 -215.5t186 -68.5q141 0 217.5 79.5t76.5 222.5v638h172zM493 1575l190 298h198l-218 -298h-170zM391 1228q-50 0 -85.5 35.5t-35.5 85.5t35.5 85.5
t85.5 35.5t85.5 -35.5t35.5 -85.5t-35.5 -85.5t-85.5 -35.5zM795 1228q-50 0 -85.5 35.5t-35.5 85.5t35.5 85.5t85.5 35.5t85.5 -35.5t35.5 -85.5t-35.5 -85.5t-85.5 -35.5z" />
    <glyph glyph-name="Udieresiscaron" unicode="&#x1d9;" horiz-adv-x="1524" 
d="M369 1443v-935q0 -167 104.5 -271.5t288.5 -104.5t288.5 104.5t104.5 271.5v935h180v-947q0 -235 -154.5 -382.5t-418.5 -147.5t-418.5 147.5t-154.5 382.5v947h180zM560 1575q-49 0 -83 34t-34 83t34 83t83 34t83 -34t34 -83t-34 -83t-83 -34zM964 1575q-49 0 -83 34
t-34 83t34 83t83 34t83 -34t34 -83t-34 -83t-83 -34zM860 1862h-196l-294 233h222l162 -135h16l162 135h222z" />
    <glyph glyph-name="udieresiscaron" unicode="&#x1da;" horiz-adv-x="1196" 
d="M1034 1078v-1078h-164v169h-16q-41 -91 -126 -139.5t-208 -48.5q-180 0 -274 103t-94 296v698h172v-656q0 -147 58 -215.5t186 -68.5q141 0 217.5 79.5t76.5 222.5v638h172zM391 1228q-49 0 -83 34t-34 83t34 83t83 34t83 -34t34 -83t-34 -83t-83 -34zM795 1228
q-49 0 -83 34t-34 83t34 83t83 34t83 -34t34 -83t-34 -83t-83 -34zM694 1575h-202l-282 320h200l175 -207h16l175 207h200z" />
    <glyph glyph-name="Udieresisgrave" unicode="&#x1db;" horiz-adv-x="1524" 
d="M369 1443v-935q0 -167 104.5 -271.5t288.5 -104.5t288.5 104.5t104.5 271.5v935h180v-947q0 -235 -154.5 -382.5t-418.5 -147.5t-418.5 147.5t-154.5 382.5v947h180zM868 1873h-176l-281 222h227zM560 1575q-50 0 -85.5 35.5t-35.5 85.5t35.5 85.5t85.5 35.5t85.5 -35.5
t35.5 -85.5t-35.5 -85.5t-85.5 -35.5zM964 1575q-50 0 -85.5 35.5t-35.5 85.5t35.5 85.5t85.5 35.5t85.5 -35.5t35.5 -85.5t-35.5 -85.5t-85.5 -35.5z" />
    <glyph glyph-name="udieresisgrave" unicode="&#x1dc;" horiz-adv-x="1196" 
d="M1034 1078v-1078h-164v169h-16q-41 -91 -126 -139.5t-208 -48.5q-180 0 -274 103t-94 296v698h172v-656q0 -147 58 -215.5t186 -68.5q141 0 217.5 79.5t76.5 222.5v638h172zM693 1575h-170l-218 298h198zM391 1228q-50 0 -85.5 35.5t-35.5 85.5t35.5 85.5t85.5 35.5
t85.5 -35.5t35.5 -85.5t-35.5 -85.5t-85.5 -35.5zM795 1228q-50 0 -85.5 35.5t-35.5 85.5t35.5 85.5t85.5 35.5t85.5 -35.5t35.5 -85.5t-35.5 -85.5t-85.5 -35.5z" />
    <glyph glyph-name="Adieresismacron" unicode="&#x1de;" horiz-adv-x="1380" 
d="M1122 0l-145 413h-574l-145 -413h-189l532 1443h178l532 -1443h-189zM682 1210l-226 -644h468l-226 644h-16zM353 1932v130h674v-130h-674zM488 1575q-49 0 -83 34t-34 83t34 83t83 34t83 -34t34 -83t-34 -83t-83 -34zM892 1575q-49 0 -83 34t-34 83t34 83t83 34t83 -34
t34 -83t-34 -83t-83 -34z" />
    <glyph glyph-name="adieresismacron" unicode="&#x1df;" horiz-adv-x="1130" 
d="M494 132q133 0 220.5 77t87.5 193v99l-290 -19q-122 -8 -179 -51t-57 -125q0 -81 61 -127.5t157 -46.5zM462 -19q-159 0 -261.5 87.5t-102.5 233.5q0 144 102 226t291 93l311 19v98q0 100 -62 153t-182 53q-97 0 -161 -35t-82 -99h-174q17 129 133.5 208t289.5 79
q196 0 303 -95t107 -264v-738h-164v159h-16q-52 -86 -138 -132t-194 -46zM362 1228q-49 0 -83 34t-34 83t34 83t83 34t83 -34t34 -83t-34 -83t-83 -34zM766 1228q-49 0 -83 34t-34 83t34 83t83 34t83 -34t34 -83t-34 -83t-83 -34zM901 1620h-674v136h674v-136z" />
    <glyph glyph-name="Adotmacron" unicode="&#x1e0;" horiz-adv-x="1380" 
d="M1122 0l-145 413h-574l-145 -413h-189l532 1443h178l532 -1443h-189zM682 1210l-226 -644h468l-226 644h-16zM690 1577q-50 0 -84.5 34.5t-34.5 84.5t34.5 84.5t84.5 34.5t84.5 -34.5t34.5 -84.5t-34.5 -84.5t-84.5 -34.5zM1027 1932h-674v130h674v-130z" />
    <glyph glyph-name="adotmacron" unicode="&#x1e1;" horiz-adv-x="1130" 
d="M494 132q133 0 220.5 77t87.5 193v99l-290 -19q-122 -8 -179 -51t-57 -125q0 -81 61 -127.5t157 -46.5zM462 -19q-159 0 -261.5 87.5t-102.5 233.5q0 144 102 226t291 93l311 19v98q0 100 -62 153t-182 53q-97 0 -161 -35t-82 -99h-174q17 129 133.5 208t289.5 79
q196 0 303 -95t107 -264v-738h-164v159h-16q-52 -86 -138 -132t-194 -46zM564 1228q-50 0 -84.5 34.5t-34.5 84.5t34.5 84.5t84.5 34.5t84.5 -34.5t34.5 -84.5t-34.5 -84.5t-84.5 -34.5zM901 1620h-674v136h674v-136z" />
    <glyph glyph-name="AEmacron" unicode="&#x1e2;" horiz-adv-x="1966" 
d="M986 1292h-147l-310 -680h457v680zM986 0v459h-527l-209 -459h-181l651 1443h1104v-162h-658v-473h621v-160h-621v-486h658v-162h-838zM1776 1620h-674v136h674v-136z" />
    <glyph glyph-name="aemacron" unicode="&#x1e3;" horiz-adv-x="1849" 
d="M1287 -19q-129 0 -236 65t-150 166h-16q-53 -109 -158.5 -170t-247.5 -61q-171 0 -276 87t-105 234q0 144 102 226t291 93l311 19v98q0 100 -62 153t-182 53q-97 0 -161 -35t-82 -99h-174q17 130 133.5 208.5t289.5 78.5q124 0 214.5 -50.5t133.5 -134.5h16
q48 81 145.5 133t211.5 52q214 0 335 -140.5t121 -388.5v-68h-768v-18q7 -159 93 -253.5t225 -94.5q100 0 164.5 35.5t99.5 109.5h172q-41 -143 -155.5 -220.5t-284.5 -77.5zM1276 946q-130 0 -211.5 -82.5t-91.5 -224.5h587q-3 135 -82.5 221t-201.5 86zM504 132
q128 0 213 80.5t85 197.5v91l-290 -19q-122 -8 -179 -51t-57 -125q0 -81 62.5 -127.5t165.5 -46.5zM1276 1286h-674v136h674v-136z" />
    <glyph glyph-name="Gcaron" unicode="&#x1e6;" horiz-adv-x="1529" 
d="M1395 558q0 -267 -168 -429.5t-445 -162.5q-299 0 -476.5 205t-177.5 551q0 342 179 548.5t475 206.5q240 0 402.5 -125t201.5 -339h-183q-47 146 -154 222t-267 76q-214 0 -341.5 -160t-127.5 -429q0 -273 126.5 -431.5t343.5 -158.5q194 0 313.5 113t119.5 296v35h-406
v158h585v-176zM864 1575h-164l-300 298h202l172 -177h16l172 177h202z" />
    <glyph glyph-name="gcaron" unicode="&#x1e7;" horiz-adv-x="1248" 
d="M918 555q0 177 -86 282t-234 105t-230 -104t-82 -283t82 -283t230 -104q149 0 234.5 105t85.5 282zM606 -414q-193 0 -312.5 80t-139.5 215h182q14 -67 85 -106t185 -39q145 0 226.5 67.5t81.5 186.5v212h-16q-51 -89 -139 -137.5t-199 -48.5q-208 0 -330 147.5
t-122 391.5t123 393t329 149q113 0 206 -51.5t140 -138.5h16v171h164v-1097q0 -181 -130 -288t-350 -107zM695 1228h-202l-282 340h198l177 -227h16l177 227h198z" />
    <glyph glyph-name="Kcaron" unicode="&#x1e8;" horiz-adv-x="1349" 
d="M364 0h-180v1443h180v-701h16l632 701h226l-577 -623l630 -820h-233l-521 695l-173 -191v-504zM735 1575h-164l-300 298h202l172 -177h16l172 177h202z" />
    <glyph glyph-name="kcaron" unicode="&#x1e9;" horiz-adv-x="1112" 
d="M360 607l468 471h211l-464 -462l495 -616h-219l-404 505l-103 -96v-409h-172v1506h172v-899h16zM340 1638h-164l-300 298h202l172 -177h16l172 177h202z" />
    <glyph glyph-name="Oogonek" unicode="&#x1ea;" horiz-adv-x="1579" 
d="M1058 -432q-106 0 -174.5 57.5t-68.5 146.5q0 123 131 208v16q-20 -13 -64.5 -21.5t-90.5 -8.5q-307 0 -485 203t-178 553q0 348 178.5 551.5t484.5 203.5q305 0 482.5 -203t177.5 -552q0 -217 -78.5 -383.5t-255.5 -324.5q-133 -118 -133 -204q0 -43 31.5 -70.5
t80.5 -27.5q44 0 66 6v-134q-45 -16 -104 -16zM791 1311q-220 0 -349 -159t-129 -430q0 -273 128.5 -431.5t349.5 -158.5q219 0 347 159t128 431t-127.5 430.5t-347.5 158.5z" />
    <glyph glyph-name="oogonek" unicode="&#x1eb;" horiz-adv-x="1210" 
d="M605 136q152 0 235.5 105.5t83.5 297.5q0 193 -83.5 298t-235.5 105t-235.5 -105t-83.5 -298q0 -192 83.5 -297.5t235.5 -105.5zM555 -228q0 123 131 208v16q-26 -15 -81 -15q-231 0 -364 149.5t-133 408.5t133 408.5t364 149.5t364 -149.5t133 -408.5q0 -158 -58.5 -287
t-186.5 -242q-133 -119 -133 -200q0 -46 33 -72t79 -26q42 0 66 6v-134q-46 -16 -104 -16q-109 0 -176 58.5t-67 145.5z" />
    <glyph glyph-name="Oogonekmacron" unicode="&#x1ec;" horiz-adv-x="1579" 
d="M1058 -432q-106 0 -174.5 57.5t-68.5 146.5q0 123 131 208v16q-20 -13 -64.5 -21.5t-90.5 -8.5q-307 0 -485 203t-178 553q0 348 178.5 551.5t484.5 203.5q305 0 482.5 -203t177.5 -552q0 -217 -78.5 -383.5t-255.5 -324.5q-133 -118 -133 -204q0 -43 31.5 -70.5
t80.5 -27.5q44 0 66 6v-134q-45 -16 -104 -16zM791 1311q-220 0 -349 -159t-129 -430q0 -273 128.5 -431.5t349.5 -158.5q219 0 347 159t128 431t-127.5 430.5t-347.5 158.5zM1128 1620h-674v136h674v-136z" />
    <glyph glyph-name="oogonekmacron" unicode="&#x1ed;" horiz-adv-x="1210" 
d="M605 136q152 0 235.5 105.5t83.5 297.5q0 193 -83.5 298t-235.5 105t-235.5 -105t-83.5 -298q0 -192 83.5 -297.5t235.5 -105.5zM555 -228q0 123 131 208v16q-26 -15 -81 -15q-231 0 -364 149.5t-133 408.5t133 408.5t364 149.5t364 -149.5t133 -408.5q0 -158 -58.5 -287
t-186.5 -242q-133 -119 -133 -200q0 -46 33 -72t79 -26q42 0 66 6v-134q-46 -16 -104 -16q-109 0 -176 58.5t-67 145.5zM942 1286h-674v136h674v-136z" />
    <glyph glyph-name="u01F1" unicode="&#x1f1;" horiz-adv-x="2842" 
d="M184 1443h495q321 0 501 -190.5t180 -530.5q0 -341 -179.5 -531.5t-501.5 -190.5h-495v1443zM364 1281v-1119h303q241 0 375 147t134 411q0 265 -134.5 413t-374.5 148h-303zM1631 0v128l817 1137v16h-789v162h1022v-128l-813 -1137v-16h830v-162h-1067z" />
    <glyph glyph-name="u01F2" unicode="&#x1f2;" horiz-adv-x="2591" 
d="M184 1443h495q321 0 501 -190.5t180 -530.5q0 -341 -179.5 -531.5t-501.5 -190.5h-495v1443zM364 1281v-1119h303q241 0 375 147t134 411q0 265 -134.5 413t-374.5 148h-303zM1624 0v126l622 792v16h-621v144h826v-129l-619 -789v-16h622v-144h-830z" />
    <glyph glyph-name="u01F3" unicode="&#x1f3;" horiz-adv-x="2362" 
d="M561 -19q-207 0 -330 152t-123 406q0 253 123.5 405.5t329.5 152.5q113 0 202.5 -50.5t135.5 -138.5h15v598h172v-1506h-164v172h-16q-51 -90 -142 -140.5t-203 -50.5zM601 942q-147 0 -231 -107.5t-84 -295.5q0 -189 83.5 -296t231.5 -107q147 0 232 108t85 295
q0 185 -85.5 294t-231.5 109zM1395 0v126l622 792v16h-621v144h826v-129l-619 -789v-16h622v-144h-830z" />
    <glyph glyph-name="Gacute" unicode="&#x1f4;" horiz-adv-x="1529" 
d="M1395 558q0 -267 -168 -429.5t-445 -162.5q-299 0 -476.5 205t-177.5 551q0 342 179 548.5t475 206.5q240 0 402.5 -125t201.5 -339h-183q-47 146 -154 222t-267 76q-214 0 -341.5 -160t-127.5 -429q0 -273 126.5 -431.5t343.5 -158.5q194 0 313.5 113t119.5 296v35h-406
v158h585v-176zM676 1575l310 298h226l-332 -298h-204z" />
    <glyph glyph-name="gacute" unicode="&#x1f5;" horiz-adv-x="1248" 
d="M918 555q0 177 -86 282t-234 105t-230 -104t-82 -283t82 -283t230 -104q149 0 234.5 105t85.5 282zM606 -414q-193 0 -312.5 80t-139.5 215h182q14 -67 85 -106t185 -39q145 0 226.5 67.5t81.5 186.5v212h-16q-51 -89 -139 -137.5t-199 -48.5q-208 0 -330 147.5
t-122 391.5t123 393t329 149q113 0 206 -51.5t140 -138.5h16v171h164v-1097q0 -181 -130 -288t-350 -107zM480 1263l252 338h220l-278 -338h-194z" />
    <glyph glyph-name="Ngrave" unicode="&#x1f8;" horiz-adv-x="1520" 
d="M362 0h-178v1443h175l783 -1123h16v1123h178v-1443h-175l-783 1119h-16v-1119zM548 1873l310 -298h-204l-332 298h226z" />
    <glyph glyph-name="ngrave" unicode="&#x1f9;" horiz-adv-x="1195" 
d="M162 0v1078h164v-170h16q86 189 324 189q181 0 279 -103.5t98 -295.5v-698h-172v656q0 145 -62.5 215.5t-191.5 70.5q-130 0 -206.5 -81.5t-76.5 -222.5v-638h-172zM725 1263h-194l-278 338h220z" />
    <glyph glyph-name="Aringacute" unicode="&#x1fa;" horiz-adv-x="1380" 
d="M1122 0l-145 413h-574l-145 -413h-189l532 1443h178l532 -1443h-189zM682 1210l-226 -644h468l-226 644h-16zM590 1730q0 -43 28.5 -72.5t71.5 -29.5t71.5 29.5t28.5 72.5t-28.5 72.5t-71.5 29.5t-71.5 -29.5t-28.5 -72.5zM690 1533q-84 0 -143 57.5t-59 140.5t59 140.5
t143 57.5t143 -57.5t59 -140.5t-59 -140.5t-143 -57.5zM760 2173h187l-174 -181h-161z" />
    <glyph glyph-name="aringacute" unicode="&#x1fb;" horiz-adv-x="1130" 
d="M494 132q133 0 220.5 77t87.5 193v99l-290 -19q-122 -8 -179 -51t-57 -125q0 -81 61 -127.5t157 -46.5zM462 -19q-159 0 -261.5 87.5t-102.5 233.5q0 144 102 226t291 93l311 19v98q0 100 -62 153t-182 53q-97 0 -161 -35t-82 -99h-174q17 129 133.5 208t289.5 79
q196 0 303 -95t107 -264v-738h-164v159h-16q-52 -86 -138 -132t-194 -46zM564 1200q-84 0 -143 58t-59 140t59 140t143 58t143 -58t59 -140t-59 -140t-143 -58zM464 1397q0 -43 29 -72.5t71 -29.5t71 29.5t29 72.5t-29 72.5t-71 29.5t-71 -29.5t-29 -72.5zM479 1683l166 226
h199l-194 -226h-171z" />
    <glyph glyph-name="AEacute" unicode="&#x1fc;" horiz-adv-x="1966" 
d="M986 1292h-147l-310 -680h457v680zM986 0v459h-527l-209 -459h-181l651 1443h1104v-162h-658v-473h621v-160h-621v-486h658v-162h-838zM1333 1575l310 298h226l-332 -298h-204z" />
    <glyph glyph-name="aeacute" unicode="&#x1fd;" horiz-adv-x="1849" 
d="M1287 -19q-129 0 -236 65t-150 166h-16q-53 -109 -158.5 -170t-247.5 -61q-171 0 -276 87t-105 234q0 144 102 226t291 93l311 19v98q0 100 -62 153t-182 53q-97 0 -161 -35t-82 -99h-174q17 130 133.5 208.5t289.5 78.5q124 0 214.5 -50.5t133.5 -134.5h16
q48 81 145.5 133t211.5 52q214 0 335 -140.5t121 -388.5v-68h-768v-18q7 -159 93 -253.5t225 -94.5q100 0 164.5 35.5t99.5 109.5h172q-41 -143 -155.5 -220.5t-284.5 -77.5zM1276 946q-130 0 -211.5 -82.5t-91.5 -224.5h587q-3 135 -82.5 221t-201.5 86zM504 132
q128 0 213 80.5t85 197.5v91l-290 -19q-122 -8 -179 -51t-57 -125q0 -81 62.5 -127.5t165.5 -46.5zM825 1263l252 338h220l-278 -338h-194z" />
    <glyph glyph-name="Oslashacute" unicode="&#x1fe;" horiz-adv-x="1551" 
d="M1206 1873l-332 -298h-204l310 298h226zM1158 1127l-675 -881q122 -114 308 -114q221 0 348 160t127 430q0 249 -108 405zM403 346l672 871q-117 94 -284 94q-220 0 -349 -159t-129 -430q0 -227 90 -376zM1382 1419l-110 -143q179 -202 179 -554q0 -348 -176.5 -552
t-483.5 -204q-248 0 -418 137l-115 -150l-100 76l127 165q-157 200 -157 528q0 348 178.5 551.5t484.5 203.5q231 0 392 -119l101 130z" />
    <glyph glyph-name="oslashacute" unicode="&#x1ff;" horiz-adv-x="1210" 
d="M939 1601l-278 -338h-194l252 338h220zM856 815l-427 -629q73 -50 176 -50q153 0 236 105.5t83 297.5q0 175 -68 276zM344 280l425 620q-69 42 -164 42q-153 0 -236 -105.5t-83 -297.5q0 -158 58 -259zM1018 1054l-62 -92q146 -149 146 -423q0 -259 -133.5 -408.5
t-363.5 -149.5q-155 0 -268 69l-59 -87l-104 69l67 98q-133 150 -133 409q0 260 133 409t364 149q144 0 256 -62l57 83z" />
    <glyph glyph-name="Adblgrave" unicode="&#x200;" horiz-adv-x="1380" 
d="M1122 0l-145 413h-574l-145 -413h-189l532 1443h178l532 -1443h-189zM682 1210l-226 -644h468l-226 644h-16zM600 1575h-204l-332 298h226zM1014 1575h-204l-332 298h226z" />
    <glyph glyph-name="adblgrave" unicode="&#x201;" horiz-adv-x="1130" 
d="M494 132q133 0 220.5 77t87.5 193v99l-290 -19q-122 -8 -179 -51t-57 -125q0 -81 61 -127.5t157 -46.5zM462 -19q-159 0 -261.5 87.5t-102.5 233.5q0 144 102 226t291 93l311 19v98q0 100 -62 153t-182 53q-97 0 -161 -35t-82 -99h-174q17 129 133.5 208t289.5 79
q196 0 303 -95t107 -264v-738h-164v159h-16q-52 -86 -138 -132t-194 -46zM483 1263h-182l-280 338h210zM883 1263h-182l-280 338h210z" />
    <glyph glyph-name="Ainvertedbreve" unicode="&#x202;" horiz-adv-x="1380" 
d="M1122 0l-145 413h-574l-145 -413h-189l532 1443h178l532 -1443h-189zM682 1210l-226 -644h468l-226 644h-16zM326 1575q0 135 98 216.5t266 81.5t266 -81.5t98 -216.5h-154q0 79 -56.5 126t-153.5 47t-153.5 -47t-56.5 -126h-154z" />
    <glyph glyph-name="ainvertedbreve" unicode="&#x203;" horiz-adv-x="1130" 
d="M494 132q133 0 220.5 77t87.5 193v99l-290 -19q-122 -8 -179 -51t-57 -125q0 -81 61 -127.5t157 -46.5zM462 -19q-159 0 -261.5 87.5t-102.5 233.5q0 144 102 226t291 93l311 19v98q0 100 -62 153t-182 53q-97 0 -161 -35t-82 -99h-174q17 129 133.5 208t289.5 79
q196 0 303 -95t107 -264v-738h-164v159h-16q-52 -86 -138 -132t-194 -46zM200 1228q0 145 98 236.5t266 91.5t266 -91.5t98 -236.5h-154q0 89 -55.5 144.5t-154.5 55.5t-154.5 -55.5t-55.5 -144.5h-154z" />
    <glyph glyph-name="Edblgrave" unicode="&#x204;" horiz-adv-x="1220" 
d="M1078 162v-162h-894v1443h894v-162h-714v-463h677v-160h-677v-496h714zM541 1575h-204l-332 298h226zM955 1575h-204l-332 298h226z" />
    <glyph glyph-name="edblgrave" unicode="&#x205;" horiz-adv-x="1170" 
d="M592 945q-129 0 -212 -87t-93 -230h594q-3 143 -82 230t-207 87zM876 279h172q-39 -140 -158.5 -219t-295.5 -79q-224 0 -355 150.5t-131 406.5q0 255 132 407t354 152q218 0 343 -145t125 -397v-66h-775v-8q7 -160 90.5 -254t220.5 -94q209 0 278 146zM513 1263h-182
l-280 338h210zM913 1263h-182l-280 338h210z" />
    <glyph glyph-name="Einvertedbreve" unicode="&#x206;" horiz-adv-x="1220" 
d="M1078 162v-162h-894v1443h894v-162h-714v-463h677v-160h-677v-496h714zM267 1575q0 135 98 216.5t266 81.5t266 -81.5t98 -216.5h-154q0 79 -56.5 126t-153.5 47t-153.5 -47t-56.5 -126h-154z" />
    <glyph glyph-name="einvertedbreve" unicode="&#x207;" horiz-adv-x="1170" 
d="M592 945q-129 0 -212 -87t-93 -230h594q-3 143 -82 230t-207 87zM876 279h172q-39 -140 -158.5 -219t-295.5 -79q-224 0 -355 150.5t-131 406.5q0 255 132 407t354 152q218 0 343 -145t125 -397v-66h-775v-8q7 -160 90.5 -254t220.5 -94q209 0 278 146zM230 1228
q0 145 98 236.5t266 91.5t266 -91.5t98 -236.5h-154q0 89 -55.5 144.5t-154.5 55.5t-154.5 -55.5t-55.5 -144.5h-154z" />
    <glyph glyph-name="Idblgrave" unicode="&#x208;" horiz-adv-x="548" 
d="M364 0h-180v1443h180v-1443zM184 1575h-204l-332 298h226zM598 1575h-204l-332 298h226z" />
    <glyph glyph-name="idblgrave" unicode="&#x209;" horiz-adv-x="504" 
d="M166 0v1078h172v-1078h-172zM171 1263h-182l-280 338h210zM571 1263h-182l-280 338h210z" />
    <glyph glyph-name="Iinvertedbreve" unicode="&#x20a;" horiz-adv-x="548" 
d="M364 0h-180v1443h180v-1443zM-90 1575q0 135 98 216.5t266 81.5t266 -81.5t98 -216.5h-154q0 79 -56.5 126t-153.5 47t-153.5 -47t-56.5 -126h-154z" />
    <glyph glyph-name="iinvertedbreve" unicode="&#x20b;" horiz-adv-x="504" 
d="M166 0v1078h172v-1078h-172zM-112 1228q0 145 98 236.5t266 91.5t266 -91.5t98 -236.5h-154q0 89 -55.5 144.5t-154.5 55.5t-154.5 -55.5t-55.5 -144.5h-154z" />
    <glyph glyph-name="Odblgrave" unicode="&#x20c;" horiz-adv-x="1579" 
d="M791 1477q307 0 483.5 -203.5t176.5 -551.5t-176.5 -552t-483.5 -204q-309 0 -486 204t-177 552t178.5 551.5t484.5 203.5zM791 1311q-220 0 -349 -159t-129 -430t127.5 -430.5t350.5 -159.5q221 0 348 160t127 430q0 272 -127 430.5t-348 158.5zM701 1575h-204l-332 298
h226zM1115 1575h-204l-332 298h226z" />
    <glyph glyph-name="odblgrave" unicode="&#x20d;" horiz-adv-x="1210" 
d="M605 136q153 0 236 105.5t83 297.5t-83 297.5t-236 105.5t-236 -105.5t-83 -297.5t83 -297.5t236 -105.5zM605 -19q-230 0 -363.5 149.5t-133.5 408.5q0 260 133 409t364 149t364 -149t133 -409q0 -259 -133.5 -408.5t-363.5 -149.5zM524 1263h-182l-280 338h210z
M924 1263h-182l-280 338h210z" />
    <glyph glyph-name="Oinvertedbreve" unicode="&#x20e;" horiz-adv-x="1579" 
d="M791 1477q307 0 483.5 -203.5t176.5 -551.5t-176.5 -552t-483.5 -204q-309 0 -486 204t-177 552t178.5 551.5t484.5 203.5zM791 1311q-220 0 -349 -159t-129 -430t127.5 -430.5t350.5 -159.5q221 0 348 160t127 430q0 272 -127 430.5t-348 158.5zM427 1575
q0 135 98 216.5t266 81.5t266 -81.5t98 -216.5h-154q0 79 -56.5 126t-153.5 47t-153.5 -47t-56.5 -126h-154z" />
    <glyph glyph-name="oinvertedbreve" unicode="&#x20f;" horiz-adv-x="1210" 
d="M605 136q153 0 236 105.5t83 297.5t-83 297.5t-236 105.5t-236 -105.5t-83 -297.5t83 -297.5t236 -105.5zM605 -19q-230 0 -363.5 149.5t-133.5 408.5q0 260 133 409t364 149t364 -149t133 -409q0 -259 -133.5 -408.5t-363.5 -149.5zM241 1228q0 145 98 236.5t266 91.5
t266 -91.5t98 -236.5h-154q0 89 -55.5 144.5t-154.5 55.5t-154.5 -55.5t-55.5 -144.5h-154z" />
    <glyph glyph-name="Rdblgrave" unicode="&#x210;" horiz-adv-x="1338" 
d="M364 1283v-552h355q139 0 214.5 71.5t75.5 204.5q0 130 -79 203t-219 73h-347zM364 571v-571h-180v1443h551q209 0 334.5 -117.5t125.5 -312.5q0 -151 -77 -261t-213 -153l334 -599h-211l-309 571h-355zM519 1575h-204l-332 298h226zM933 1575h-204l-332 298h226z" />
    <glyph glyph-name="rdblgrave" unicode="&#x211;" horiz-adv-x="765" 
d="M162 0v1078h164v-160h16q24 79 108 129t191 50q49 0 86 -5v-172q-35 10 -110 10q-123 0 -203 -74t-80 -188v-668h-172zM297 1263h-182l-280 338h210zM697 1263h-182l-280 338h210z" />
    <glyph glyph-name="Rinvertedbreve" unicode="&#x212;" horiz-adv-x="1338" 
d="M364 1283v-552h355q139 0 214.5 71.5t75.5 204.5q0 130 -79 203t-219 73h-347zM364 571v-571h-180v1443h551q209 0 334.5 -117.5t125.5 -312.5q0 -151 -77 -261t-213 -153l334 -599h-211l-309 571h-355zM245 1575q0 135 98 216.5t266 81.5t266 -81.5t98 -216.5h-154
q0 79 -56.5 126t-153.5 47t-153.5 -47t-56.5 -126h-154z" />
    <glyph glyph-name="rinvertedbreve" unicode="&#x213;" horiz-adv-x="765" 
d="M162 0v1078h164v-160h16q24 79 108 129t191 50q49 0 86 -5v-172q-35 10 -110 10q-123 0 -203 -74t-80 -188v-668h-172zM14 1228q0 145 98 236.5t266 91.5t266 -91.5t98 -236.5h-154q0 89 -55.5 144.5t-154.5 55.5t-154.5 -55.5t-55.5 -144.5h-154z" />
    <glyph glyph-name="Udblgrave" unicode="&#x214;" horiz-adv-x="1524" 
d="M369 1443v-935q0 -167 104.5 -271.5t288.5 -104.5t288.5 104.5t104.5 271.5v935h180v-947q0 -235 -154.5 -382.5t-418.5 -147.5t-418.5 147.5t-154.5 382.5v947h180zM672 1575h-204l-332 298h226zM1086 1575h-204l-332 298h226z" />
    <glyph glyph-name="udblgrave" unicode="&#x215;" horiz-adv-x="1196" 
d="M1034 1078v-1078h-164v169h-16q-41 -91 -126 -139.5t-208 -48.5q-180 0 -274 103t-94 296v698h172v-656q0 -147 58 -215.5t186 -68.5q141 0 217.5 79.5t76.5 222.5v638h172zM512 1263h-182l-280 338h210zM912 1263h-182l-280 338h210z" />
    <glyph glyph-name="Uinvertedbreve" unicode="&#x216;" horiz-adv-x="1524" 
d="M369 1443v-935q0 -167 104.5 -271.5t288.5 -104.5t288.5 104.5t104.5 271.5v935h180v-947q0 -235 -154.5 -382.5t-418.5 -147.5t-418.5 147.5t-154.5 382.5v947h180zM398 1575q0 135 98 216.5t266 81.5t266 -81.5t98 -216.5h-154q0 79 -56.5 126t-153.5 47t-153.5 -47
t-56.5 -126h-154z" />
    <glyph glyph-name="uinvertedbreve" unicode="&#x217;" horiz-adv-x="1196" 
d="M1034 1078v-1078h-164v169h-16q-41 -91 -126 -139.5t-208 -48.5q-180 0 -274 103t-94 296v698h172v-656q0 -147 58 -215.5t186 -68.5q141 0 217.5 79.5t76.5 222.5v638h172zM229 1228q0 145 98 236.5t266 91.5t266 -91.5t98 -236.5h-154q0 89 -55.5 144.5t-154.5 55.5
t-154.5 -55.5t-55.5 -144.5h-154z" />
    <glyph glyph-name="Scommaaccent" unicode="&#x218;" horiz-adv-x="1305" 
d="M115 377h182q17 -113 117 -180t254 -67q146 0 241.5 70.5t95.5 177.5q0 92 -70 152.5t-219 98.5l-185 48q-196 49 -285 142t-89 247q0 184 140.5 297.5t369.5 113.5q209 0 350 -112t152 -287h-181q-19 111 -105.5 173.5t-221.5 62.5q-144 0 -231.5 -66.5t-87.5 -175.5
q0 -85 64.5 -138t213.5 -91l151 -40q224 -56 321.5 -150t97.5 -253q0 -199 -146 -316.5t-393 -117.5q-229 0 -375.5 112t-160.5 299zM654 -518h-167l102 377h182z" />
    <glyph glyph-name="scommaaccent" unicode="&#x219;" horiz-adv-x="1072" 
d="M137 783q0 134 115 224t287 90q169 0 279 -78t127 -211h-170q-18 66 -79.5 104.5t-157.5 38.5q-97 0 -162.5 -45t-65.5 -116q0 -55 45.5 -91.5t141.5 -59.5l166 -40q154 -37 227.5 -107t73.5 -185q0 -143 -123 -234.5t-309 -91.5q-180 0 -295 80t-129 214h177
q22 -70 87 -109.5t166 -39.5q109 0 179 47t70 121q0 110 -171 152l-185 45q-153 37 -223.5 106.5t-70.5 185.5zM535 -518h-167l102 377h182z" />
    <glyph glyph-name="Tcommaaccent" unicode="&#x21a;" horiz-adv-x="1298" 
d="M739 0h-180v1281h-465v162h1110v-162h-465v-1281zM652 -518h-167l102 377h182z" />
    <glyph glyph-name="tcommaaccent" unicode="&#x21b;" horiz-adv-x="744" 
d="M234 1357h172v-279h240v-144h-240v-610q0 -95 38 -138t122 -43q37 0 80 4v-145q-57 -10 -101 -10q-167 0 -239 67t-72 221v654h-174v144h174v279zM419 -518h-167l102 377h182z" />
    <glyph glyph-name="Hcaron" unicode="&#x21e;" horiz-adv-x="1520" 
d="M1336 0h-180v657h-792v-657h-180v1443h180v-624h792v624h180v-1443zM842 1575h-164l-300 298h202l172 -177h16l172 177h202z" />
    <glyph glyph-name="hcaron" unicode="&#x21f;" horiz-adv-x="1216" 
d="M172 0v1506h172v-598h16q41 91 125.5 140t206.5 49q172 0 272 -105.5t100 -293.5v-698h-172v656q0 286 -249 286q-142 0 -220.5 -82.5t-78.5 -221.5v-638h-172zM340 1638h-164l-300 298h202l172 -177h16l172 177h202z" />
    <glyph glyph-name="Adotaccent" unicode="&#x226;" horiz-adv-x="1380" 
d="M1122 0l-145 413h-574l-145 -413h-189l532 1443h178l532 -1443h-189zM682 1210l-226 -644h468l-226 644h-16zM690 1575q-50 0 -85.5 35.5t-35.5 85.5t35.5 85.5t85.5 35.5t85.5 -35.5t35.5 -85.5t-35.5 -85.5t-85.5 -35.5z" />
    <glyph glyph-name="adotaccent" unicode="&#x227;" horiz-adv-x="1130" 
d="M494 132q133 0 220.5 77t87.5 193v99l-290 -19q-122 -8 -179 -51t-57 -125q0 -81 61 -127.5t157 -46.5zM462 -19q-159 0 -261.5 87.5t-102.5 233.5q0 144 102 226t291 93l311 19v98q0 100 -62 153t-182 53q-97 0 -161 -35t-82 -99h-174q17 129 133.5 208t289.5 79
q196 0 303 -95t107 -264v-738h-164v159h-16q-52 -86 -138 -132t-194 -46zM564 1287q-52 0 -90 37.5t-38 90.5q0 52 37.5 89.5t90.5 37.5t90.5 -37.5t37.5 -89.5q0 -53 -38 -90.5t-90 -37.5z" />
    <glyph glyph-name="Ecedilla" unicode="&#x228;" horiz-adv-x="1220" 
d="M1078 1281h-714v-463h677v-160h-677v-496h714v-162h-363l-55 -142q102 0 158.5 -43t56.5 -120q0 -85 -65.5 -137t-178.5 -52q-85 0 -146 18v108q48 -14 122 -14q119 0 119 73q0 35 -35 50t-114 15h-59v84l63 160h-397v1443h894v-162z" />
    <glyph glyph-name="ecedilla" unicode="&#x229;" horiz-adv-x="1170" 
d="M287 628h594q-3 143 -82 230t-207 87q-129 0 -212 -87t-93 -230zM1062 489h-775v-8q7 -160 90.5 -254t220.5 -94q209 0 278 146h172q-35 -123 -132.5 -200t-242.5 -93l-49 -128q102 0 158.5 -43t56.5 -120q0 -85 -65.5 -137t-178.5 -52q-85 0 -146 18v108q48 -14 122 -14
q119 0 119 73q0 35 -35 50t-114 15h-59v84l57 144q-200 19 -315.5 167t-115.5 387q0 255 132 407t354 152q218 0 343 -145t125 -397v-66z" />
    <glyph glyph-name="Odieresismacron" unicode="&#x22a;" horiz-adv-x="1579" 
d="M791 1477q307 0 483.5 -203.5t176.5 -551.5t-176.5 -552t-483.5 -204q-309 0 -486 204t-177 552t178.5 551.5t484.5 203.5zM791 1311q-220 0 -349 -159t-129 -430t127.5 -430.5t350.5 -159.5q221 0 348 160t127 430q0 272 -127 430.5t-348 158.5zM454 1932v130h674v-130
h-674zM589 1575q-49 0 -83 34t-34 83t34 83t83 34t83 -34t34 -83t-34 -83t-83 -34zM993 1575q-49 0 -83 34t-34 83t34 83t83 34t83 -34t34 -83t-34 -83t-83 -34z" />
    <glyph glyph-name="odieresismacron" unicode="&#x22b;" horiz-adv-x="1210" 
d="M605 136q153 0 236 105.5t83 297.5t-83 297.5t-236 105.5t-236 -105.5t-83 -297.5t83 -297.5t236 -105.5zM605 -19q-230 0 -363.5 149.5t-133.5 408.5q0 260 133 409t364 149t364 -149t133 -409q0 -259 -133.5 -408.5t-363.5 -149.5zM403 1228q-49 0 -83 34t-34 83t34 83
t83 34t83 -34t34 -83t-34 -83t-83 -34zM807 1228q-49 0 -83 34t-34 83t34 83t83 34t83 -34t34 -83t-34 -83t-83 -34zM942 1620h-674v136h674v-136z" />
    <glyph glyph-name="Otildemacron" unicode="&#x22c;" horiz-adv-x="1579" 
d="M791 1477q307 0 483.5 -203.5t176.5 -551.5t-176.5 -552t-483.5 -204q-309 0 -486 204t-177 552t178.5 551.5t484.5 203.5zM791 1311q-220 0 -349 -159t-129 -430t127.5 -430.5t350.5 -159.5q221 0 348 160t127 430q0 272 -127 430.5t-348 158.5zM1128 1932h-674v130h674
v-130zM931 1575q-47 0 -83 13t-57.5 32t-40 38t-42.5 32t-53 13q-88 0 -94 -111h-136q0 106 63 173.5t163 67.5q47 0 83 -13t57.5 -32t40 -38t42.5 -32t53 -13q38 0 64.5 27.5t30.5 83.5h135q0 -102 -63.5 -171.5t-162.5 -69.5z" />
    <glyph glyph-name="otildemacron" unicode="&#x22d;" horiz-adv-x="1210" 
d="M605 136q153 0 236 105.5t83 297.5t-83 297.5t-236 105.5t-236 -105.5t-83 -297.5t83 -297.5t236 -105.5zM605 -19q-230 0 -363.5 149.5t-133.5 408.5q0 260 133 409t364 149t364 -149t133 -409q0 -259 -133.5 -408.5t-363.5 -149.5zM467 1388q-53 0 -75.5 -36
t-22.5 -121h-142q0 136 61.5 213.5t170.5 77.5q44 0 82.5 -16t64.5 -39t48 -46.5t44.5 -39.5t44.5 -16q53 0 75.5 36t22.5 121h142q0 -136 -61.5 -213.5t-170.5 -77.5q-44 0 -82.5 16t-64.5 39.5t-48 46.5t-44.5 39t-44.5 16zM942 1626h-674v136h674v-136z" />
    <glyph glyph-name="Odotaccent" unicode="&#x22e;" horiz-adv-x="1579" 
d="M791 1477q307 0 483.5 -203.5t176.5 -551.5t-176.5 -552t-483.5 -204q-309 0 -486 204t-177 552t178.5 551.5t484.5 203.5zM791 1311q-220 0 -349 -159t-129 -430t127.5 -430.5t350.5 -159.5q221 0 348 160t127 430q0 272 -127 430.5t-348 158.5zM791 1575
q-50 0 -85.5 35.5t-35.5 85.5t35.5 85.5t85.5 35.5t85.5 -35.5t35.5 -85.5t-35.5 -85.5t-85.5 -35.5z" />
    <glyph glyph-name="odotaccent" unicode="&#x22f;" horiz-adv-x="1210" 
d="M605 136q153 0 236 105.5t83 297.5t-83 297.5t-236 105.5t-236 -105.5t-83 -297.5t83 -297.5t236 -105.5zM605 -19q-230 0 -363.5 149.5t-133.5 408.5q0 260 133 409t364 149t364 -149t133 -409q0 -259 -133.5 -408.5t-363.5 -149.5zM605 1287q-53 0 -90.5 37.5
t-37.5 90.5q0 52 37.5 89.5t90.5 37.5t90.5 -37.5t37.5 -89.5q0 -53 -37.5 -90.5t-90.5 -37.5z" />
    <glyph glyph-name="Odotaccentmacron" unicode="&#x230;" horiz-adv-x="1579" 
d="M791 1477q307 0 483.5 -203.5t176.5 -551.5t-176.5 -552t-483.5 -204q-309 0 -486 204t-177 552t178.5 551.5t484.5 203.5zM791 1311q-220 0 -349 -159t-129 -430t127.5 -430.5t350.5 -159.5q221 0 348 160t127 430q0 272 -127 430.5t-348 158.5zM791 1577
q-49 0 -84 34.5t-35 84.5t35 84.5t84 34.5t84 -34.5t35 -84.5t-35 -84.5t-84 -34.5zM1128 1932h-674v130h674v-130z" />
    <glyph glyph-name="odotaccentmacron" unicode="&#x231;" horiz-adv-x="1210" 
d="M605 136q153 0 236 105.5t83 297.5t-83 297.5t-236 105.5t-236 -105.5t-83 -297.5t83 -297.5t236 -105.5zM605 -19q-230 0 -363.5 149.5t-133.5 408.5q0 260 133 409t364 149t364 -149t133 -409q0 -259 -133.5 -408.5t-363.5 -149.5zM605 1228q-50 0 -84.5 34.5
t-34.5 84.5t34.5 84.5t84.5 34.5t84.5 -34.5t34.5 -84.5t-34.5 -84.5t-84.5 -34.5zM942 1620h-674v136h674v-136z" />
    <glyph glyph-name="Ymacron" unicode="&#x232;" horiz-adv-x="1344" 
d="M762 0h-180v621l-512 822h205l389 -641h16l389 641h205l-512 -822v-621zM1009 1620h-674v136h674v-136z" />
    <glyph glyph-name="ymacron" unicode="&#x233;" horiz-adv-x="1112" 
d="M254 -390q-41 0 -77 6v147q26 -5 72 -5q75 0 119.5 40t78.5 137l20 64l-399 1079h186l296 -887h16l295 887h183l-421 -1144q-69 -187 -147 -255.5t-222 -68.5zM888 1286h-674v136h674v-136z" />
    <glyph glyph-name="dotlessj" unicode="&#x237;" horiz-adv-x="504" 
d="M338 1078v-1131q0 -166 -80 -241.5t-250 -75.5h-30v147h26q90 0 126 38t36 129v1134h172z" />
    <glyph glyph-name="quoteright" unicode="&#x2bc;" horiz-adv-x="605" 
d="M289 904h-150l137 539h190z" />
    <glyph glyph-name="quoteright" unicode="&#x2019;" horiz-adv-x="605" 
d="M289 904h-150l137 539h190z" />
    <glyph glyph-name="circumflex" unicode="&#x2c6;" horiz-adv-x="1094" 
d="M648 1568l282 -340h-198l-177 227h-16l-177 -227h-198l282 340h202z" />
    <glyph glyph-name="caron" unicode="&#x2c7;" horiz-adv-x="1094" 
d="M648 1228h-202l-282 340h198l177 -227h16l177 227h198z" />
    <glyph glyph-name="breve" unicode="&#x2d8;" horiz-adv-x="1048" 
d="M160 1556h154q0 -89 55.5 -144.5t154.5 -55.5t154.5 55.5t55.5 144.5h154q0 -145 -98 -236.5t-266 -91.5t-266 91.5t-98 236.5z" />
    <glyph glyph-name="dotaccent" unicode="&#x2d9;" horiz-adv-x="1048" 
d="M524 1287q-52 0 -90 37.5t-38 90.5q0 52 37.5 89.5t90.5 37.5t90.5 -37.5t37.5 -89.5q0 -53 -38 -90.5t-90 -37.5z" />
    <glyph glyph-name="ring" unicode="&#x2da;" horiz-adv-x="1094" 
d="M547 1228q-96 0 -164 66.5t-68 162.5t68 162.5t164 66.5t164 -66.5t68 -162.5t-68 -162.5t-164 -66.5zM547 1334q52 0 87 35t35 88t-35 88t-87 35t-87 -35t-35 -88t35 -88t87 -35z" />
    <glyph glyph-name="ogonek" unicode="&#x2db;" horiz-adv-x="1048" 
d="M592 -432q-108 0 -171.5 51.5t-63.5 138.5q0 60 35.5 112.5t125.5 127.5l24 20h169l-109 -89q-88 -71 -88 -141q0 -41 30.5 -63.5t85.5 -22.5q48 0 72 9v-125q-46 -18 -110 -18z" />
    <glyph glyph-name="tilde" unicode="&#x2dc;" horiz-adv-x="1093" 
d="M408 1420q-53 0 -75.5 -36t-22.5 -121h-142q0 136 61.5 213.5t170.5 77.5q44 0 82.5 -16t64.5 -39t48 -46.5t44.5 -39.5t44.5 -16q53 0 75.5 36t22.5 121h142q0 -136 -61.5 -213.5t-170.5 -77.5q-44 0 -82.5 16t-64.5 39.5t-48 46.5t-44.5 39t-44.5 16z" />
    <glyph glyph-name="hungarumlaut" unicode="&#x2dd;" horiz-adv-x="1048" 
d="M485 1263l252 338h210l-280 -338h-182zM85 1263l252 338h210l-280 -338h-182z" />
    <glyph glyph-name="gravecmb" unicode="&#x300;" 
d="M122 1263h-194l-278 338h220z" />
    <glyph glyph-name="acutecmb" unicode="&#x301;" 
d="M-114 1263l252 338h220l-278 -338h-194z" />
    <glyph glyph-name="circumflexcmb" unicode="&#x302;" 
d="M101 1568l282 -340h-198l-177 227h-16l-177 -227h-198l282 340h202z" />
    <glyph glyph-name="tildecmb" unicode="&#x303;" 
d="M-138 1388q-53 0 -75.5 -36t-22.5 -121h-142q0 136 61.5 213.5t170.5 77.5q44 0 82.5 -16t64.5 -39t48 -46.5t44.5 -39.5t44.5 -16q53 0 75.5 36t22.5 121h142q0 -136 -61.5 -213.5t-170.5 -77.5q-44 0 -82.5 16t-64.5 39.5t-48 46.5t-44.5 39t-44.5 16z" />
    <glyph glyph-name="macroncmb" unicode="&#x304;" 
d="M337 1286h-674v136h674v-136z" />
    <glyph glyph-name="brevecmb" unicode="&#x306;" 
d="M-366 1556h154q0 -89 55.5 -144.5t154.5 -55.5t154.5 55.5t55.5 144.5h154q0 -145 -98 -236.5t-266 -91.5t-266 91.5t-98 236.5z" />
    <glyph glyph-name="dotaccentcmb" unicode="&#x307;" 
d="M0 1287q-52 0 -90 37.5t-38 90.5q0 52 37.5 89.5t90.5 37.5t90.5 -37.5t37.5 -89.5q0 -53 -38 -90.5t-90 -37.5z" />
    <glyph glyph-name="dieresiscmb" unicode="&#x308;" 
d="M-202 1228q-50 0 -85.5 35.5t-35.5 85.5t35.5 85.5t85.5 35.5t85.5 -35.5t35.5 -85.5t-35.5 -85.5t-85.5 -35.5zM202 1228q-50 0 -85.5 35.5t-35.5 85.5t35.5 85.5t85.5 35.5t85.5 -35.5t35.5 -85.5t-35.5 -85.5t-85.5 -35.5z" />
    <glyph glyph-name="hookabovecmb" unicode="&#x309;" 
d="M-144 1451v123q52 21 134 21q106 0 167 -49.5t61 -134.5q0 -69 -52 -130t-134 -88l-75 99q49 14 80.5 44.5t31.5 62.5t-28.5 53.5t-71.5 21.5q-69 0 -113 -23z" />
    <glyph glyph-name="ringcmb" unicode="&#x30a;" 
d="M0 1228q-96 0 -164 66.5t-68 162.5t68 162.5t164 66.5t164 -66.5t68 -162.5t-68 -162.5t-164 -66.5zM0 1334q52 0 87 35t35 88t-35 88t-87 35t-87 -35t-35 -88t35 -88t87 -35z" />
    <glyph glyph-name="hungarumlautcmb" unicode="&#x30b;" 
d="M65 1263l252 338h210l-280 -338h-182zM-335 1263l252 338h210l-280 -338h-182z" />
    <glyph glyph-name="caroncmb" unicode="&#x30c;" 
d="M101 1228h-202l-282 340h198l177 -227h16l177 227h198z" />
    <glyph glyph-name="dblgravecmb" unicode="&#x30f;" 
d="M-81 1263h-182l-280 338h210zM319 1263h-182l-280 338h210z" />
    <glyph glyph-name="invertedbrevecmb" unicode="&#x311;" 
d="M-364 1228q0 145 98 236.5t266 91.5t266 -91.5t98 -236.5h-154q0 89 -55.5 144.5t-154.5 55.5t-154.5 -55.5t-55.5 -144.5h-154z" />
    <glyph glyph-name="horncmb" unicode="&#x31b;" 
d="M0 972v139q40 -43 103 -43q65 0 93 40.5t28 132.5v156h159v-204q0 -118 -68.5 -191.5t-178.5 -73.5q-81 0 -136 44z" />
    <glyph glyph-name="dotbelowcmb" unicode="&#x323;" 
d="M0 -402q-50 0 -85.5 35.5t-35.5 85.5t35.5 85.5t85.5 35.5t85.5 -35.5t35.5 -85.5t-35.5 -85.5t-85.5 -35.5z" />
    <glyph glyph-name="dieresisbelowcmb" unicode="&#x324;" 
d="M-202 -432q-50 0 -85.5 35.5t-35.5 85.5t35.5 85.5t85.5 35.5t85.5 -35.5t35.5 -85.5t-35.5 -85.5t-85.5 -35.5zM202 -432q-50 0 -85.5 35.5t-35.5 85.5t35.5 85.5t85.5 35.5t85.5 -35.5t35.5 -85.5t-35.5 -85.5t-85.5 -35.5z" />
    <glyph glyph-name="ringbelowcmb" unicode="&#x325;" 
d="M0 -573q-96 0 -164 66.5t-68 162.5t68 162.5t164 66.5t164 -66.5t68 -162.5t-68 -162.5t-164 -66.5zM0 -467q52 0 87 35t35 88t-35 88t-87 35t-87 -35t-35 -88t35 -88t87 -35z" />
    <glyph glyph-name="commabelowcmb" unicode="&#x326;" 
d="M3 -518h-167l102 377h182z" />
    <glyph glyph-name="cedillacmb" unicode="&#x327;" 
d="M-113 -244v84l63 160h134l-55 -142q102 0 158.5 -43t56.5 -120q0 -85 -65.5 -137t-178.5 -52q-84 0 -146 18v108q48 -14 122 -14q119 0 119 73q0 35 -35 50t-114 15h-59z" />
    <glyph glyph-name="ogonekcmb" unicode="&#x328;" 
d="M14 -432q-108 0 -171.5 51.5t-63.5 138.5q0 60 35.5 112.5t125.5 127.5l24 20h169l-109 -89q-88 -71 -88 -141q0 -41 30.5 -63.5t85.5 -22.5q48 0 72 9v-125q-46 -18 -110 -18z" />
    <glyph glyph-name="circumflexbelowcmb" unicode="&#x32d;" 
d="M82 -142l300 -290h-202l-172 173h-16l-172 -173h-202l300 290h164z" />
    <glyph glyph-name="brevebelowcmb" unicode="&#x32e;" 
d="M-364 -134h154q0 -79 56.5 -126t153.5 -47t153.5 47t56.5 126h154q0 -135 -98 -216.5t-266 -81.5t-266 81.5t-98 216.5z" />
    <glyph glyph-name="tildebelowcmb" unicode="&#x330;" 
d="M150 -423q-45 0 -82.5 17.5t-62.5 42t-47.5 49t-49 42t-54.5 17.5q-45 0 -68 -34.5t-26 -116.5h-136q0 133 60.5 207t165.5 74q48 0 88.5 -17.5t67 -42t49 -49t45.5 -42t46 -17.5q87 0 95 151h135q0 -128 -61.5 -204.5t-164.5 -76.5z" />
    <glyph glyph-name="macronbelowcmb" unicode="&#x331;" 
d="M337 -348h-674v136h674v-136z" />
    <glyph glyph-name="greekquestionmark" unicode="&#x37e;" horiz-adv-x="608" 
d="M260 -367h-150l96 569h202zM304 759q-53 0 -91.5 38.5t-38.5 91.5q0 54 38.5 92t91.5 38q54 0 92 -38t38 -92q0 -53 -38 -91.5t-92 -38.5z" />
    <glyph glyph-name="tonosgreek" unicode="&#x384;" horiz-adv-x="915" 
d="M286 1263l88 338h206l-135 -338h-159z" />
    <glyph glyph-name="dieresistonosgreek" unicode="&#x385;" horiz-adv-x="1350" 
d="M344 1263q-50 0 -85.5 35.5t-35.5 85.5t35.5 85.5t85.5 35.5t85.5 -35.5t35.5 -85.5t-35.5 -85.5t-85.5 -35.5zM1006 1263q-50 0 -85.5 35.5t-35.5 85.5t35.5 85.5t85.5 35.5t85.5 -35.5t35.5 -85.5t-35.5 -85.5t-85.5 -35.5zM570 1263l37 338h196l-84 -338h-149z" />
    <glyph glyph-name="Alphatonosgreek" unicode="&#x386;" horiz-adv-x="1380" 
d="M1122 0l-145 413h-574l-145 -413h-189l532 1443h178l532 -1443h-189zM682 1210l-226 -644h468l-226 644h-16zM92 1105l88 338h206l-135 -338h-159z" />
    <glyph glyph-name="anoteleia" unicode="&#x387;" horiz-adv-x="630" 
d="M316 794q-62 0 -102 40t-40 102t40 102t102 40q61 0 100.5 -40t39.5 -102t-39.5 -102t-100.5 -40z" />
    <glyph glyph-name="Epsilontonosgreek" unicode="&#x388;" horiz-adv-x="1618" 
d="M1476 162v-162h-894v1443h894v-162h-714v-463h677v-160h-677v-496h714zM104 1105l88 338h206l-135 -338h-159z" />
    <glyph glyph-name="Etatonosgreek" unicode="&#x389;" horiz-adv-x="1918" 
d="M1734 0h-180v657h-792v-657h-180v1443h180v-624h792v624h180v-1443zM104 1105l88 338h206l-135 -338h-159z" />
    <glyph glyph-name="Iotatonosgreek" unicode="&#x38a;" horiz-adv-x="946" 
d="M762 0h-180v1443h180v-1443zM104 1105l88 338h206l-135 -338h-159z" />
    <glyph glyph-name="Omicrontonosgreek" unicode="&#x38c;" horiz-adv-x="1843" 
d="M1055 1477q307 0 483.5 -203.5t176.5 -551.5t-176.5 -552t-483.5 -204q-309 0 -486 204t-177 552t178.5 551.5t484.5 203.5zM1055 1311q-220 0 -349 -159t-129 -430t127.5 -430.5t350.5 -159.5q221 0 348 160t127 430q0 272 -127 430.5t-348 158.5zM104 1105l88 338h206
l-135 -338h-159z" />
    <glyph glyph-name="Upsilontonosgreek" unicode="&#x38e;" horiz-adv-x="1742" 
d="M1160 0h-180v621l-512 822h205l389 -641h16l389 641h205l-512 -822v-621zM104 1105l88 338h206l-135 -338h-159z" />
    <glyph glyph-name="Omegatonosgreek" unicode="&#x38f;" horiz-adv-x="1859" 
d="M404 0v162h311v16q-147 94 -229 257t-82 362q0 304 182 492t478 188t478 -188t182 -492q0 -199 -82 -362t-229 -257v-16h311v-162h-526v204q175 109 258 252.5t83 336.5q0 241 -127 379.5t-348 138.5t-348 -138.5t-127 -379.5q0 -193 83 -336.5t258 -252.5v-204h-526z
M104 1105l88 338h206l-135 -338h-159z" />
    <glyph glyph-name="iotadieresistonosgreek" unicode="&#x390;" horiz-adv-x="614" 
d="M460 -8q-161 0 -229.5 69t-68.5 221v796h172v-754q0 -94 37 -137.5t121 -43.5q21 0 62 4v-145q-47 -10 -94 -10zM-62 1263q-50 0 -85.5 35.5t-35.5 85.5t35.5 85.5t85.5 35.5t85.5 -35.5t35.5 -85.5t-35.5 -85.5t-85.5 -35.5zM600 1263q-50 0 -85.5 35.5t-35.5 85.5
t35.5 85.5t85.5 35.5t85.5 -35.5t35.5 -85.5t-35.5 -85.5t-85.5 -35.5zM164 1263l37 338h196l-84 -338h-149z" />
    <glyph glyph-name="Alphagreek" unicode="&#x391;" horiz-adv-x="1380" 
d="M1122 0l-145 413h-574l-145 -413h-189l532 1443h178l532 -1443h-189zM682 1210l-226 -644h468l-226 644h-16z" />
    <glyph glyph-name="Betagreek" unicode="&#x392;" horiz-adv-x="1346" 
d="M747 0h-563v1443h552q198 0 312.5 -97t114.5 -263q0 -112 -72.5 -202t-176.5 -109v-16q148 -19 235 -113.5t87 -237.5q0 -191 -129.5 -298t-359.5 -107zM364 1284v-463h288q329 0 329 231q0 110 -74.5 171t-208.5 61h-334zM364 159h356q163 0 247 65t84 190
q0 252 -348 252h-339v-507z" />
    <glyph glyph-name="Gammagreek" unicode="&#x393;" horiz-adv-x="1152" 
d="M184 0v1443h856v-162h-676v-1281h-180z" />
    <glyph glyph-name="Deltagreek" unicode="&#x394;" horiz-adv-x="1394" 
d="M103 0v127l505 1316h178l505 -1316v-127h-1188zM307 162h780v16l-382 1042h-16l-382 -1042v-16z" />
    <glyph glyph-name="Deltagreek" unicode="&#x2206;" horiz-adv-x="1394" 
d="M103 0v127l505 1316h178l505 -1316v-127h-1188zM307 162h780v16l-382 1042h-16l-382 -1042v-16z" />
    <glyph glyph-name="Epsilongreek" unicode="&#x395;" horiz-adv-x="1220" 
d="M1078 162v-162h-894v1443h894v-162h-714v-463h677v-160h-677v-496h714z" />
    <glyph glyph-name="Zetagreek" unicode="&#x396;" horiz-adv-x="1355" 
d="M144 0v128l817 1137v16h-789v162h1022v-128l-813 -1137v-16h830v-162h-1067z" />
    <glyph glyph-name="Etagreek" unicode="&#x397;" horiz-adv-x="1520" 
d="M1336 0h-180v657h-792v-657h-180v1443h180v-624h792v624h180v-1443z" />
    <glyph glyph-name="Thetagreek" unicode="&#x398;" horiz-adv-x="1599" 
d="M497 638v162h605v-162h-605zM801 132q225 0 355 155t130 435q0 282 -130 435.5t-355 153.5t-356.5 -154t-131.5 -435t130.5 -435.5t357.5 -154.5zM801 -34q-313 0 -493 199t-180 557t181.5 556.5t491.5 198.5q311 0 490.5 -198.5t179.5 -556.5t-179 -557t-491 -199z" />
    <glyph glyph-name="Iotagreek" unicode="&#x399;" horiz-adv-x="548" 
d="M364 0h-180v1443h180v-1443z" />
    <glyph glyph-name="Kappagreek" unicode="&#x39a;" horiz-adv-x="1349" 
d="M364 0h-180v1443h180v-701h16l632 701h226l-577 -623l630 -820h-233l-521 695l-173 -191v-504z" />
    <glyph glyph-name="Lambdagreek" unicode="&#x39b;" horiz-adv-x="1368" 
d="M83 0l512 1443h178l512 -1443h-189l-404 1200h-16l-404 -1200h-189z" />
    <glyph glyph-name="Mugreek" unicode="&#x39c;" horiz-adv-x="1790" 
d="M352 0h-168v1443h209l494 -1194h16l494 1194h209v-1443h-168v1102h-12l-455 -1092h-152l-455 1092h-12v-1102z" />
    <glyph glyph-name="Nugreek" unicode="&#x39d;" horiz-adv-x="1520" 
d="M362 0h-178v1443h175l783 -1123h16v1123h178v-1443h-175l-783 1119h-16v-1119z" />
    <glyph glyph-name="Xigreek" unicode="&#x39e;" horiz-adv-x="1343" 
d="M142 0v167h1059v-167h-1059zM229 653v165h885v-165h-885zM142 1276v167h1059v-167h-1059z" />
    <glyph glyph-name="Omicrongreek" unicode="&#x39f;" horiz-adv-x="1579" 
d="M791 1477q307 0 483.5 -203.5t176.5 -551.5t-176.5 -552t-483.5 -204q-309 0 -486 204t-177 552t178.5 551.5t484.5 203.5zM791 1311q-220 0 -349 -159t-129 -430t127.5 -430.5t350.5 -159.5q221 0 348 160t127 430q0 272 -127 430.5t-348 158.5z" />
    <glyph glyph-name="Pigreek" unicode="&#x3a0;" horiz-adv-x="1500" 
d="M184 0v1443h1132v-1443h-180v1281h-772v-1281h-180z" />
    <glyph glyph-name="Rhogreek" unicode="&#x3a1;" horiz-adv-x="1301" 
d="M184 1443h545q205 0 333.5 -130.5t128.5 -336.5q0 -202 -130.5 -331.5t-333.5 -129.5h-363v-515h-180v1443zM364 1283v-608h318q154 0 239 79t85 222q0 149 -83.5 228t-240.5 79h-318z" />
    <glyph glyph-name="Sigmagreek" unicode="&#x3a3;" horiz-adv-x="1335" 
d="M144 0v132l419 593l-402 566v152h1012v-162h-779v-16l357 -511v-32l-379 -544v-16h819v-162h-1047z" />
    <glyph glyph-name="Taugreek" unicode="&#x3a4;" horiz-adv-x="1298" 
d="M739 0h-180v1281h-465v162h1110v-162h-465v-1281z" />
    <glyph glyph-name="Upsilongreek" unicode="&#x3a5;" horiz-adv-x="1344" 
d="M762 0h-180v621l-512 822h205l389 -641h16l389 641h205l-512 -822v-621z" />
    <glyph glyph-name="Phigreek" unicode="&#x3a6;" horiz-adv-x="1716" 
d="M768 -58v143q-295 14 -472.5 183.5t-177.5 449.5t177.5 449.5t472.5 183.5v146h180v-146q295 -14 472.5 -183.5t177.5 -449.5t-177.5 -449.5t-472.5 -183.5v-143h-180zM768 246v944q-213 -8 -339.5 -130.5t-126.5 -341.5t126.5 -341.5t339.5 -130.5zM948 246
q213 8 339.5 130.5t126.5 341.5t-126.5 341.5t-339.5 130.5v-944z" />
    <glyph glyph-name="Chigreek" unicode="&#x3a7;" horiz-adv-x="1390" 
d="M90 0l494 726l-488 717h217l380 -574h16l386 574h205l-500 -725l489 -718h-216l-378 569h-16l-385 -569h-204z" />
    <glyph glyph-name="Psigreek" unicode="&#x3a8;" horiz-adv-x="1676" 
d="M748 0v339q-260 1 -419.5 154.5t-159.5 404.5v545h180v-539q0 -188 103.5 -291t295.5 -108v938h180v-938q192 5 295.5 108t103.5 291v539h180v-545q0 -251 -159.5 -405t-419.5 -154v-339h-180z" />
    <glyph glyph-name="Omegagreek" unicode="&#x3a9;" horiz-adv-x="1590" 
d="M135 0v162h311v16q-147 94 -229 257t-82 362q0 304 182 492t478 188t478 -188t182 -492q0 -199 -82 -362t-229 -257v-16h311v-162h-526v204q175 109 258 252.5t83 336.5q0 241 -127 379.5t-348 138.5t-348 -138.5t-127 -379.5q0 -193 83 -336.5t258 -252.5v-204h-526z
" />
    <glyph glyph-name="Omegagreek" unicode="&#x2126;" horiz-adv-x="1590" 
d="M135 0v162h311v16q-147 94 -229 257t-82 362q0 304 182 492t478 188t478 -188t182 -492q0 -199 -82 -362t-229 -257v-16h311v-162h-526v204q175 109 258 252.5t83 336.5q0 241 -127 379.5t-348 138.5t-348 -138.5t-127 -379.5q0 -193 83 -336.5t258 -252.5v-204h-526z
" />
    <glyph glyph-name="Iotadieresisgreek" unicode="&#x3aa;" horiz-adv-x="548" 
d="M364 0h-180v1443h180v-1443zM72 1575q-50 0 -85.5 35.5t-35.5 85.5t35.5 85.5t85.5 35.5t85.5 -35.5t35.5 -85.5t-35.5 -85.5t-85.5 -35.5zM476 1575q-50 0 -85.5 35.5t-35.5 85.5t35.5 85.5t85.5 35.5t85.5 -35.5t35.5 -85.5t-35.5 -85.5t-85.5 -35.5z" />
    <glyph glyph-name="Upsilondieresisgreek" unicode="&#x3ab;" horiz-adv-x="1344" 
d="M762 0h-180v621l-512 822h205l389 -641h16l389 641h205l-512 -822v-621zM470 1575q-50 0 -85.5 35.5t-35.5 85.5t35.5 85.5t85.5 35.5t85.5 -35.5t35.5 -85.5t-35.5 -85.5t-85.5 -35.5zM874 1575q-50 0 -85.5 35.5t-35.5 85.5t35.5 85.5t85.5 35.5t85.5 -35.5t35.5 -85.5
t-35.5 -85.5t-85.5 -35.5z" />
    <glyph glyph-name="alphatonosgreek" unicode="&#x3ac;" horiz-adv-x="1265" 
d="M547 -19q-203 0 -326 152t-123 406q0 253 123.5 405.5t325.5 152.5q243 0 327 -219h16v200h166v-809q0 -72 21 -100t69 -28q26 0 49 4v-145q-36 -10 -87 -10q-96 0 -151.5 48t-65.5 142l-1 10h-16q-88 -209 -327 -209zM560 136q150 0 238.5 109.5t88.5 293.5
q0 181 -82.5 292t-221.5 111q-142 0 -224.5 -107.5t-82.5 -295.5q0 -185 77.5 -294t206.5 -109zM477 1263l88 338h206l-135 -338h-159z" />
    <glyph glyph-name="epsilontonosgreek" unicode="&#x3ad;" horiz-adv-x="1057" 
d="M552 -21q-205 0 -324.5 86.5t-119.5 223.5q0 178 186 240v16q-166 67 -166 235q0 144 117.5 229.5t306.5 85.5q197 0 312.5 -81.5t139.5 -236.5h-174q-21 79 -93 121t-185 42q-116 0 -186.5 -44t-70.5 -121q0 -71 61.5 -113.5t177.5 -42.5h153v-154h-153
q-120 0 -184 -44.5t-64 -119.5q0 -77 69.5 -121.5t196.5 -44.5q115 0 196 51t103 138h174q-17 -99 -83.5 -178t-168.5 -123t-221 -44zM480 1263l88 338h206l-135 -338h-159z" />
    <glyph glyph-name="etatonosgreek" unicode="&#x3ae;" horiz-adv-x="1257" 
d="M234 0v809q0 73 -22.5 100.5t-77.5 27.5q-26 0 -49 -4v145q36 10 92 10q90 0 147 -41.5t70 -120.5l3 -18h16q40 88 125 138.5t196 50.5q177 0 274 -104t97 -295v-1058h-172v1016q0 286 -248 286q-130 0 -204.5 -82.5t-74.5 -221.5v-638h-172zM473 1263l88 338h206
l-135 -338h-159z" />
    <glyph glyph-name="iotatonosgreek" unicode="&#x3af;" horiz-adv-x="614" 
d="M460 -8q-161 0 -229.5 69t-68.5 221v796h172v-754q0 -94 37 -137.5t121 -43.5q21 0 62 4v-145q-47 -10 -94 -10zM160 1263l88 338h206l-135 -338h-159z" />
    <glyph glyph-name="upsilondieresistonosgreek" unicode="&#x3b0;" horiz-adv-x="1135" 
d="M574 -19q-198 0 -312 110.5t-114 323.5v663h172v-654q0 -143 65 -214.5t184 -71.5q123 0 196.5 103t73.5 292q0 182 -20 288.5t-82 256.5h178q46 -94 74 -237.5t28 -283.5q0 -275 -115.5 -425.5t-327.5 -150.5zM232 1263q-50 0 -85.5 35.5t-35.5 85.5t35.5 85.5
t85.5 35.5t85.5 -35.5t35.5 -85.5t-35.5 -85.5t-85.5 -35.5zM894 1263q-50 0 -85.5 35.5t-35.5 85.5t35.5 85.5t85.5 35.5t85.5 -35.5t35.5 -85.5t-35.5 -85.5t-85.5 -35.5zM458 1263l37 338h196l-84 -338h-149z" />
    <glyph glyph-name="alphagreek" unicode="&#x3b1;" horiz-adv-x="1265" 
d="M547 -19q-203 0 -326 152t-123 406q0 253 123.5 405.5t325.5 152.5q243 0 327 -219h16v200h166v-809q0 -72 21 -100t69 -28q26 0 49 4v-145q-36 -10 -87 -10q-96 0 -151.5 48t-65.5 142l-1 10h-16q-88 -209 -327 -209zM560 136q150 0 238.5 109.5t88.5 293.5
q0 181 -82.5 292t-221.5 111q-142 0 -224.5 -107.5t-82.5 -295.5q0 -185 77.5 -294t206.5 -109z" />
    <glyph glyph-name="betagreek" unicode="&#x3b2;" horiz-adv-x="1238" 
d="M162 -360v1389q0 235 116.5 365.5t326.5 130.5q189 0 307 -104t118 -281q0 -101 -54.5 -182t-149.5 -122v-16q149 -37 226.5 -135t77.5 -249q0 -200 -126.5 -327.5t-322.5 -127.5q-119 0 -204.5 48t-126.5 133h-16v-522h-172zM672 136q118 0 199 84t81 210
q0 150 -92.5 227.5t-269.5 77.5h-88v154h89q127 0 196.5 62t69.5 178q0 110 -68 175.5t-179 65.5q-137 0 -206.5 -90.5t-69.5 -268.5v-503q0 -170 93.5 -271t244.5 -101z" />
    <glyph glyph-name="gammagreek" unicode="&#x3b3;" horiz-adv-x="1115" 
d="M428 -350v329l-356 1099h184l274 -921h16q273 381 273 723q0 115 -18 198h172q19 -97 19 -198q0 -197 -94.5 -419t-297.5 -489v-322h-172z" />
    <glyph glyph-name="deltagreek" unicode="&#x3b4;" horiz-adv-x="1174" 
d="M587 -19q-225 0 -360 142.5t-135 371.5q0 194 110 328t276 167v19q-111 60 -156 117.5t-45 139.5q0 118 102.5 188.5t256.5 70.5q212 0 333 -82v-152q-163 83 -341 83q-86 0 -132.5 -30t-46.5 -84q0 -48 41 -86t171 -100q213 -102 314 -240t101 -329q0 -233 -139 -378.5
t-350 -145.5zM587 132q138 0 225 101.5t87 271.5q0 166 -90.5 272t-227.5 106q-132 0 -222 -102t-90 -276q0 -170 88.5 -271.5t229.5 -101.5z" />
    <glyph glyph-name="epsilongreek" unicode="&#x3b5;" horiz-adv-x="1057" 
d="M552 -19q-205 0 -324.5 86.5t-119.5 223.5q0 178 186 240v16q-166 67 -166 235q0 144 117.5 229.5t306.5 85.5q197 0 312.5 -81.5t139.5 -236.5h-174q-21 79 -93 121t-185 42q-116 0 -186.5 -44t-70.5 -121q0 -71 61.5 -113.5t177.5 -42.5h153v-154h-153
q-120 0 -184 -44.5t-64 -119.5q0 -77 69.5 -121.5t196.5 -44.5q115 0 196 51t103 138h174q-17 -99 -83.5 -178t-168.5 -123t-221 -44z" />
    <glyph glyph-name="zetagreek" unicode="&#x3b6;" horiz-adv-x="919" 
d="M814 -361l-141 42q70 115 70 195q0 68 -41.5 102.5t-173.5 78.5q-244 80 -342.5 198t-98.5 323q0 394 517 758v16h-430v154h711v-153q-322 -196 -471 -381t-149 -394q0 -145 69.5 -224.5t258.5 -141.5q184 -60 251 -126.5t67 -182.5q0 -127 -97 -264z" />
    <glyph glyph-name="etagreek" unicode="&#x3b7;" horiz-adv-x="1257" 
d="M234 0v809q0 73 -22.5 100.5t-77.5 27.5q-26 0 -49 -4v145q36 10 92 10q90 0 147 -41.5t70 -120.5l3 -18h16q40 88 125 138.5t196 50.5q177 0 274 -104t97 -295v-1058h-172v1016q0 286 -248 286q-130 0 -204.5 -82.5t-74.5 -221.5v-638h-172z" />
    <glyph glyph-name="thetagreek" unicode="&#x3b8;" horiz-adv-x="1206" 
d="M603 -19q-239 0 -367 198t-128 573q0 379 128 576t367 197q238 0 366.5 -196t128.5 -580q0 -374 -128.5 -571t-366.5 -197zM286 840h634q-12 276 -92 403t-225 127q-146 0 -225.5 -128t-91.5 -402zM603 136q152 0 231 129.5t87 420.5h-636q8 -291 87 -420.5t231 -129.5z
" />
    <glyph glyph-name="iotagreek" unicode="&#x3b9;" horiz-adv-x="614" 
d="M460 -8q-161 0 -229.5 69t-68.5 221v796h172v-754q0 -94 37 -137.5t121 -43.5q21 0 62 4v-145q-47 -10 -94 -10z" />
    <glyph glyph-name="kappagreek" unicode="&#x3ba;" horiz-adv-x="1176" 
d="M162 0v1078h172v-539h16l315 370q89 104 151.5 141.5t146.5 37.5q46 0 82 -10v-145q-24 4 -59 4q-57 0 -99 -28t-113 -112l-122 -145l431 -652h-195l-342 531l-212 -231v-300h-172z" />
    <glyph glyph-name="lambdagreek" unicode="&#x3bb;" horiz-adv-x="1136" 
d="M25 0l430 1018l-36 98q-34 93 -54.5 139t-47.5 75.5t-54 36.5t-76 7q-14 0 -45 -4v145q36 10 88 10q90 0 147.5 -32t104 -111t99.5 -234l306 -898q20 -59 52.5 -84t83.5 -25q23 0 48 4v-145q-36 -10 -76 -10q-112 0 -168.5 47t-99.5 179l-192 585h-16l-308 -801h-186z
" />
    <glyph glyph-name="nugreek" unicode="&#x3bd;" horiz-adv-x="1115" 
d="M621 0h-200l-349 1078h184l273 -922h16q274 387 274 725q0 110 -18 197h172q19 -98 19 -195q0 -384 -371 -883z" />
    <glyph glyph-name="xigreek" unicode="&#x3be;" horiz-adv-x="949" 
d="M815 -361l-141 42q39 67 54.5 109.5t15.5 84.5q0 46 -15.5 73.5t-64.5 54t-150 59.5q-230 74 -328 165.5t-98 225.5q0 121 74 206.5t214 124.5v15q-119 47 -172 114.5t-53 171.5q0 92 61.5 162t159.5 90v15h-217v154h731v-137l-103 -11q-250 -26 -359 -93t-109 -183
q0 -101 86 -151t277 -50h135v-154h-138q-195 0 -302.5 -68t-107.5 -183q0 -62 26.5 -103.5t99 -80t209.5 -82.5q179 -57 245.5 -125.5t66.5 -178.5q0 -68 -20.5 -124t-76.5 -143z" />
    <glyph glyph-name="omicrongreek" unicode="&#x3bf;" horiz-adv-x="1160" 
d="M580 -19q-219 0 -350.5 150t-131.5 408q0 259 132 408.5t350 149.5t350 -149.5t132 -408.5q0 -258 -131.5 -408t-350.5 -150zM580 136q141 0 222.5 107t81.5 296q0 190 -82 296.5t-222 106.5t-222 -106.5t-82 -296.5q0 -189 81.5 -296t222.5 -107z" />
    <glyph glyph-name="pigreek" unicode="&#x3c0;" horiz-adv-x="1373" 
d="M297 0v924h-227v154h1195v-154h-210v-655q0 -74 25 -101t90 -27q23 0 49 4v-145q-38 -10 -92 -10q-129 0 -184 66.5t-55 211.5v656h-424v-924h-167z" />
    <glyph glyph-name="rhogreek" unicode="&#x3c1;" horiz-adv-x="1218" 
d="M152 -360v903q0 260 130 407t351 147q224 0 355.5 -147t131.5 -396q0 -264 -124 -418.5t-331 -154.5q-105 0 -193 48t-132 133h-16v-522h-172zM626 136q147 0 231.5 110.5t84.5 309.5q0 183 -82.5 284.5t-226.5 101.5t-229 -111.5t-85 -307.5q0 -171 87 -279t220 -108z
" />
    <glyph glyph-name="sigmafinalgreek" unicode="&#x3c2;" horiz-adv-x="1106" 
d="M922 -96q0 -127 -97 -264l-141 42q70 115 70 195q0 64 -41 99.5t-176 81.5q-245 84 -342 195.5t-97 307.5q0 244 137 390t346 146q180 0 293.5 -92.5t139.5 -256.5h-174q-28 99 -90.5 146.5t-173.5 47.5q-126 0 -213 -101.5t-87 -271.5q0 -78 15 -130.5t55.5 -93.5
t99 -70t156.5 -62q185 -62 252.5 -127.5t67.5 -181.5z" />
    <glyph glyph-name="sigmagreek" unicode="&#x3c3;" horiz-adv-x="1297" 
d="M578 -19q-216 0 -348 150.5t-132 402.5q0 250 145 397t391 147h565v-154h-301v-16q74 -56 116.5 -155.5t42.5 -216.5q0 -249 -134 -402t-345 -153zM578 136q141 0 226 106.5t85 290.5q0 177 -87.5 283.5t-212.5 106.5q-140 0 -226.5 -106.5t-86.5 -283.5
q0 -186 82.5 -291.5t219.5 -105.5z" />
    <glyph glyph-name="taugreek" unicode="&#x3c4;" horiz-adv-x="1043" 
d="M718 -8q-171 0 -243 66.5t-72 222.5v643h-343v154h885v-154h-370v-600q0 -96 38 -138.5t126 -42.5q36 0 76 4v-145q-53 -10 -97 -10z" />
    <glyph glyph-name="upsilongreek" unicode="&#x3c5;" horiz-adv-x="1135" 
d="M574 -19q-198 0 -312 110.5t-114 323.5v663h172v-654q0 -143 65 -214.5t184 -71.5q123 0 196.5 103t73.5 292q0 182 -20 288.5t-82 256.5h178q46 -94 74 -237.5t28 -283.5q0 -275 -115.5 -425.5t-327.5 -150.5z" />
    <glyph glyph-name="phigreek" unicode="&#x3c6;" horiz-adv-x="1470" 
d="M652 -360v342q-266 18 -410 169t-144 388q0 129 42.5 232.5t117.5 171.5t175 106.5t219 46.5v261h166v-261q119 -8 219 -46.5t175 -106.5t117.5 -171.5t42.5 -232.5q0 -237 -144 -388t-410 -169v-342h-166zM818 126q187 21 283.5 131.5t96.5 281.5q0 180 -102.5 286.5
t-277.5 124.5v-824zM652 126v824q-175 -18 -277.5 -124.5t-102.5 -286.5q0 -171 96.5 -281.5t283.5 -131.5z" />
    <glyph glyph-name="chigreek" unicode="&#x3c7;" horiz-adv-x="1096" 
d="M65 -360l393 719l-231 466q-31 62 -65 87t-85 25q-20 0 -40 -4v145q36 10 80 10q94 0 147 -42.5t110 -157.5l180 -364h16l280 554h183l-395 -729l229 -458q30 -60 64 -85t87 -25q15 0 38 4v-145q-36 -10 -80 -10q-87 0 -141 38t-103 136l-191 381h-16l-277 -545h-183z
" />
    <glyph glyph-name="psigreek" unicode="&#x3c8;" horiz-adv-x="1382" 
d="M609 -360v341q-218 7 -339.5 125.5t-121.5 311.5v660h172v-639q0 -142 78.5 -219.5t210.5 -81.5v1219h167v-1219q149 5 229.5 107t80.5 296q0 170 -23 290.5t-79 246.5h178q43 -87 72.5 -232t29.5 -273q0 -273 -132 -428t-356 -164v-341h-167z" />
    <glyph glyph-name="omegagreek" unicode="&#x3c9;" horiz-adv-x="1562" 
d="M485 -19q-173 0 -270 137t-97 388q0 163 47.5 317.5t129.5 254.5h188q-187 -251 -187 -570q0 -370 203 -370q86 0 141 77t55 205v349h172v-349q0 -127 55 -204.5t139 -77.5q205 0 205 370q0 319 -187 570h188q82 -100 129.5 -254.5t47.5 -317.5q0 -252 -96.5 -388.5
t-270.5 -136.5q-201 0 -288 221h-16q-87 -221 -288 -221z" />
    <glyph glyph-name="iotadieresisgreek" unicode="&#x3ca;" horiz-adv-x="614" 
d="M460 -8q-161 0 -229.5 69t-68.5 221v796h172v-754q0 -94 37 -137.5t121 -43.5q21 0 62 4v-145q-47 -10 -94 -10zM41 1228q-50 0 -85.5 35.5t-35.5 85.5t35.5 85.5t85.5 35.5t85.5 -35.5t35.5 -85.5t-35.5 -85.5t-85.5 -35.5zM445 1228q-50 0 -85.5 35.5t-35.5 85.5
t35.5 85.5t85.5 35.5t85.5 -35.5t35.5 -85.5t-35.5 -85.5t-85.5 -35.5z" />
    <glyph glyph-name="upsilondieresisgreek" unicode="&#x3cb;" horiz-adv-x="1135" 
d="M574 -19q-198 0 -312 110.5t-114 323.5v663h172v-654q0 -143 65 -214.5t184 -71.5q123 0 196.5 103t73.5 292q0 182 -20 288.5t-82 256.5h178q46 -94 74 -237.5t28 -283.5q0 -275 -115.5 -425.5t-327.5 -150.5zM353 1228q-50 0 -85.5 35.5t-35.5 85.5t35.5 85.5
t85.5 35.5t85.5 -35.5t35.5 -85.5t-35.5 -85.5t-85.5 -35.5zM757 1228q-50 0 -85.5 35.5t-35.5 85.5t35.5 85.5t85.5 35.5t85.5 -35.5t35.5 -85.5t-35.5 -85.5t-85.5 -35.5z" />
    <glyph glyph-name="omicrontonosgreek" unicode="&#x3cc;" horiz-adv-x="1160" 
d="M580 -19q-219 0 -350.5 150t-131.5 408q0 259 132 408.5t350 149.5t350 -149.5t132 -408.5q0 -258 -131.5 -408t-350.5 -150zM580 136q141 0 222.5 107t81.5 296q0 190 -82 296.5t-222 106.5t-222 -106.5t-82 -296.5q0 -189 81.5 -296t222.5 -107zM480 1263l88 338h206
l-135 -338h-159z" />
    <glyph glyph-name="upsilontonosgreek" unicode="&#x3cd;" horiz-adv-x="1135" 
d="M574 -19q-198 0 -312 110.5t-114 323.5v663h172v-654q0 -143 65 -214.5t184 -71.5q123 0 196.5 103t73.5 292q0 182 -20 288.5t-82 256.5h178q46 -94 74 -237.5t28 -283.5q0 -275 -115.5 -425.5t-327.5 -150.5zM454 1263l88 338h206l-135 -338h-159z" />
    <glyph glyph-name="omegatonosgreek" unicode="&#x3ce;" horiz-adv-x="1562" 
d="M485 -19q-173 0 -270 137t-97 388q0 163 47.5 317.5t129.5 254.5h188q-187 -251 -187 -570q0 -370 203 -370q86 0 141 77t55 205v349h172v-349q0 -127 55 -204.5t139 -77.5q205 0 205 370q0 319 -187 570h188q82 -100 129.5 -254.5t47.5 -317.5q0 -252 -96.5 -388.5
t-270.5 -136.5q-201 0 -288 221h-16q-87 -221 -288 -221zM694 1263l88 338h206l-135 -338h-159z" />
    <glyph glyph-name="Iocyrillic" unicode="&#x401;" horiz-adv-x="1240" 
d="M1088 162v-162h-894v1443h894v-162h-714v-463h677v-160h-677v-496h714zM439 1575q-50 0 -85.5 35.5t-35.5 85.5t35.5 85.5t85.5 35.5t85.5 -35.5t35.5 -85.5t-35.5 -85.5t-85.5 -35.5zM843 1575q-50 0 -85.5 35.5t-35.5 85.5t35.5 85.5t85.5 35.5t85.5 -35.5t35.5 -85.5
t-35.5 -85.5t-85.5 -35.5z" />
    <glyph glyph-name="Djecyrillic" unicode="&#x402;" horiz-adv-x="1719" 
d="M1159 -16q-39 0 -71.5 4.5t-45.5 9.5l-13 4v161q43 -16 128 -16q119 0 191.5 75.5t72.5 217.5q0 82 -31.5 149t-103 111.5t-174.5 44.5q-70 0 -130.5 -18t-98.5 -42t-68.5 -56.5t-43.5 -53.5t-22 -40v-535h-180v1281h-465v162h1110v-162h-465v-520h16q135 146 358 146
q116 0 208.5 -37.5t150.5 -102.5t88.5 -148t30.5 -177q0 -205 -119 -331.5t-323 -126.5z" />
    <glyph glyph-name="Gjecyrillic" unicode="&#x403;" horiz-adv-x="1160" 
d="M375 0h-181v1443h856v-164h-675v-1279zM477 1575l310 298h226l-332 -298h-204z" />
    <glyph glyph-name="Ecyrillic" unicode="&#x404;" horiz-adv-x="1506" 
d="M1378 402q-36 -199 -197.5 -317.5t-395.5 -118.5q-298 0 -472.5 203.5t-174.5 551.5q0 349 174 552.5t472 203.5q232 0 397 -130.5t197 -338.5h-183q-36 139 -147 221t-264 82q-191 0 -312.5 -131.5t-143.5 -360.5h640v-162h-643q15 -243 138 -384t322 -141
q155 0 265 72.5t145 197.5h183z" />
    <glyph glyph-name="Dzecyrillic" unicode="&#x405;" horiz-adv-x="1325" 
d="M125 377h182q17 -113 117 -180t254 -67q146 0 241.5 70.5t95.5 177.5q0 92 -70 152.5t-219 98.5l-185 48q-196 49 -285 142t-89 247q0 184 140.5 297.5t369.5 113.5q209 0 350 -112t152 -287h-181q-19 111 -105.5 173.5t-221.5 62.5q-144 0 -231.5 -66.5t-87.5 -175.5
q0 -85 64.5 -138t213.5 -91l151 -40q224 -56 321.5 -150t97.5 -253q0 -199 -146 -316.5t-393 -117.5q-229 0 -375.5 112t-160.5 299z" />
    <glyph glyph-name="Icyrillic" unicode="&#x406;" horiz-adv-x="568" 
d="M374 0h-180v1443h180v-1443z" />
    <glyph glyph-name="Yicyrillic" unicode="&#x407;" horiz-adv-x="568" 
d="M374 0h-180v1443h180v-1443zM82 1575q-50 0 -85.5 35.5t-35.5 85.5t35.5 85.5t85.5 35.5t85.5 -35.5t35.5 -85.5t-35.5 -85.5t-85.5 -35.5zM486 1575q-50 0 -85.5 35.5t-35.5 85.5t35.5 85.5t85.5 35.5t85.5 -35.5t35.5 -85.5t-35.5 -85.5t-85.5 -35.5z" />
    <glyph glyph-name="Jecyrillic" unicode="&#x408;" horiz-adv-x="1122" 
d="M96 337h179q3 -91 67 -148t165 -57q116 0 178.5 69.5t62.5 201.5v1040h180v-1041q0 -206 -112 -321t-308 -115q-182 0 -297 103t-115 268z" />
    <glyph glyph-name="Ljecyrillic" unicode="&#x409;" horiz-adv-x="2168" 
d="M488 540q-17 -275 -101 -412t-267 -137q-42 0 -70 10v161q22 -6 54 -6q48 0 83.5 19.5t58.5 52t38 84.5t22.5 106.5t11.5 128.5l52 896h871v-535h353q204 0 334 -127t130 -328q0 -200 -129.5 -326.5t-332.5 -126.5h-535v1281h-527zM1241 162h308q155 0 239.5 76t84.5 215
q0 140 -84.5 216.5t-239.5 76.5h-308v-584z" />
    <glyph glyph-name="Njecyrillic" unicode="&#x40a;" horiz-adv-x="2243" 
d="M1306 162h308q155 0 239.5 67t84.5 189q0 115 -84.5 177t-239.5 62h-308v-495zM374 657v-657h-180v1443h180v-624h752v624h180v-624h353q204 0 334 -112t130 -289q0 -184 -129.5 -301t-332.5 -117h-535v657h-752z" />
    <glyph glyph-name="Tshecyrillic" unicode="&#x40b;" horiz-adv-x="1769" 
d="M1102 745q-68 0 -127 -18t-95.5 -42t-66.5 -56.5t-42.5 -53t-21.5 -40.5v-535h-180v1281h-465v162h1110v-162h-465v-518h16q59 64 149 104t206 40q155 0 265.5 -68t163 -179t52.5 -253v-407h-180v395q0 159 -79.5 254.5t-239.5 95.5z" />
    <glyph glyph-name="Kjecyrillic" unicode="&#x40c;" horiz-adv-x="1369" 
d="M384 809h42l606 634h226l-677 -695l735 -748h-238l-652 665h-42v-665h-180v1443h180v-634zM527 1575l310 298h226l-332 -298h-204z" />
    <glyph glyph-name="Ushortcyrillic" unicode="&#x40e;" horiz-adv-x="1318" 
d="M336 -10q-54 0 -80 13v162q32 -8 80 -8q81 0 137 36t99 115l-493 1135h192l387 -935h16l378 935h187l-442 -1030q-32 -74 -58.5 -127t-59 -103.5t-66 -84t-75.5 -59t-92 -37.5t-110 -12zM319 1874h156q0 -81 52.5 -130.5t133.5 -49.5q82 0 135 49.5t53 130.5h156
q0 -138 -94 -218t-250 -80t-249 80t-93 218z" />
    <glyph glyph-name="Dzhecyrillic" unicode="&#x40f;" horiz-adv-x="1519" 
d="M676 0h-482v1443h180v-1281h771v1281h180v-1443h-482v-285h-167v285z" />
    <glyph glyph-name="Acyrillic" unicode="&#x410;" horiz-adv-x="1400" 
d="M1132 0l-145 413h-574l-145 -413h-189l532 1443h178l532 -1443h-189zM692 1210l-226 -644h468l-226 644h-16z" />
    <glyph glyph-name="Becyrillic" unicode="&#x411;" horiz-adv-x="1301" 
d="M1181 433q0 -191 -129.5 -312t-332.5 -121h-525v1443h843v-162h-663v-413h343q204 0 334 -121.5t130 -313.5zM374 162h298q155 0 239.5 70.5t84.5 200.5q0 131 -84.5 202t-239.5 71h-298v-544z" />
    <glyph glyph-name="Vecyrillic" unicode="&#x412;" horiz-adv-x="1366" 
d="M757 0h-563v1443h552q198 0 312.5 -97t114.5 -263q0 -112 -72.5 -202t-176.5 -109v-16q148 -19 235 -113.5t87 -237.5q0 -191 -129.5 -298t-359.5 -107zM374 1284v-463h288q329 0 329 231q0 110 -74.5 171t-208.5 61h-334zM374 159h356q163 0 247 65t84 190
q0 252 -348 252h-339v-507z" />
    <glyph glyph-name="Gecyrillic" unicode="&#x413;" horiz-adv-x="1160" 
d="M375 0h-181v1443h856v-164h-675v-1279z" />
    <glyph glyph-name="Decyrillic" unicode="&#x414;" horiz-adv-x="1500" 
d="M471 531q-8 -133 -29.5 -215t-71.5 -142v-12h700v1119h-552zM207 0v-285h-167v447h107q75 40 110.5 131.5t44.5 241.5l55 908h893v-1281h180v-447h-167v285h-1056z" />
    <glyph glyph-name="Iecyrillic" unicode="&#x415;" horiz-adv-x="1240" 
d="M1088 162v-162h-894v1443h894v-162h-714v-463h677v-160h-677v-496h714z" />
    <glyph glyph-name="Zhecyrillic" unicode="&#x416;" horiz-adv-x="2089" 
d="M953 806v637h180v-637h42l566 637h221l-638 -695l697 -748h-234l-612 667h-42v-667h-180v667h-42l-612 -667h-231l694 744l-640 699h223l566 -637h42z" />
    <glyph glyph-name="Zecyrillic" unicode="&#x417;" horiz-adv-x="1256" 
d="M416 657v160h195q127 0 208.5 72.5t81.5 185.5q0 110 -76 176t-211 66q-134 0 -216.5 -64.5t-93.5 -179.5h-175q14 188 145.5 296t346.5 108q203 0 333 -108.5t130 -277.5q0 -118 -71.5 -210.5t-186.5 -120.5v-16q142 -15 231 -109.5t89 -245.5q0 -178 -150 -300.5
t-368 -122.5q-229 0 -373.5 112.5t-154.5 297.5h174q12 -114 107.5 -182t244.5 -68q151 0 243 75t92 193q0 123 -90 193t-252 70h-203z" />
    <glyph glyph-name="Iicyrillic" unicode="&#x418;" horiz-adv-x="1540" 
d="M1168 0v1148h-16l-780 -1148h-178v1443h178v-1152h16l780 1152h178v-1443h-178z" />
    <glyph glyph-name="Iishortcyrillic" unicode="&#x419;" horiz-adv-x="1540" 
d="M1168 0v1148h-16l-780 -1148h-178v1443h178v-1152h16l780 1152h178v-1443h-178zM422 1874h156q0 -81 52.5 -130.5t133.5 -49.5q82 0 135 49.5t53 130.5h156q0 -138 -94 -218t-250 -80t-249 80t-93 218z" />
    <glyph glyph-name="Kacyrillic" unicode="&#x41a;" horiz-adv-x="1374" 
d="M374 809h42l606 634h226l-677 -695l735 -748h-238l-652 665h-42v-665h-180v1443h180v-634z" />
    <glyph glyph-name="Elcyrillic" unicode="&#x41b;" horiz-adv-x="1425" 
d="M1231 0h-180v1281h-527l-46 -741q-17 -275 -101 -412t-267 -137q-42 0 -70 10v161q22 -6 54 -6q48 0 83.5 19.5t58.5 52t38 84.5t22.5 106.5t11.5 128.5l52 896h871v-1443z" />
    <glyph glyph-name="Emcyrillic" unicode="&#x41c;" horiz-adv-x="1810" 
d="M362 0h-168v1443h209l494 -1194h16l494 1194h209v-1443h-168v1102h-12l-455 -1092h-152l-455 1092h-12v-1102z" />
    <glyph glyph-name="Encyrillic" unicode="&#x41d;" horiz-adv-x="1540" 
d="M1346 0h-180v657h-792v-657h-180v1443h180v-624h792v624h180v-1443z" />
    <glyph glyph-name="Ocyrillic" unicode="&#x41e;" horiz-adv-x="1599" 
d="M801 1477q307 0 483.5 -203.5t176.5 -551.5t-176.5 -552t-483.5 -204q-309 0 -486 204t-177 552t178.5 551.5t484.5 203.5zM801 1311q-220 0 -349 -159t-129 -430t127.5 -430.5t350.5 -159.5q221 0 348 160t127 430q0 272 -127 430.5t-348 158.5z" />
    <glyph glyph-name="Pecyrillic" unicode="&#x41f;" horiz-adv-x="1519" 
d="M1325 0h-178v1279h-772v-1279h-181v1443h1131v-1443z" />
    <glyph glyph-name="Ercyrillic" unicode="&#x420;" horiz-adv-x="1321" 
d="M194 1443h545q205 0 333.5 -130.5t128.5 -336.5q0 -202 -130.5 -331.5t-333.5 -129.5h-363v-515h-180v1443zM374 1283v-608h318q154 0 239 79t85 222q0 149 -83.5 228t-240.5 79h-318z" />
    <glyph glyph-name="Escyrillic" unicode="&#x421;" horiz-adv-x="1506" 
d="M775 -34q-294 0 -465.5 203t-171.5 552t171 552.5t465 203.5q228 0 390 -130t194 -339h-183q-36 140 -144 221.5t-257 81.5q-208 0 -329.5 -159t-121.5 -431t122 -430.5t330 -158.5q151 0 258.5 72.5t141.5 197.5h183q-36 -199 -194.5 -317.5t-388.5 -118.5z" />
    <glyph glyph-name="Tecyrillic" unicode="&#x422;" horiz-adv-x="1318" 
d="M749 0h-180v1281h-465v162h1110v-162h-465v-1281z" />
    <glyph glyph-name="Ucyrillic" unicode="&#x423;" horiz-adv-x="1318" 
d="M336 -10q-54 0 -80 13v162q32 -8 80 -8q81 0 137 36t99 115l-493 1135h192l387 -935h16l378 935h187l-442 -1030q-32 -74 -58.5 -127t-59 -103.5t-66 -84t-75.5 -59t-92 -37.5t-110 -12z" />
    <glyph glyph-name="Efcyrillic" unicode="&#x424;" horiz-adv-x="1700" 
d="M761 292v869q-209 -8 -332.5 -123.5t-123.5 -310.5t122.5 -311.5t333.5 -123.5zM1394 726q0 195 -122.5 311.5t-332.5 123.5v-869q209 8 332 123.5t123 310.5zM761 131q-290 7 -464 166.5t-174 429.5t174.5 428.5t463.5 166.5v141h178v-141q290 -7 463.5 -166.5
t173.5 -429.5t-174.5 -428.5t-462.5 -166.5v-151h-178v151z" />
    <glyph glyph-name="Xacyrillic" unicode="&#x425;" horiz-adv-x="1410" 
d="M100 0l494 726l-488 717h217l380 -574h16l386 574h205l-500 -725l489 -718h-216l-378 569h-16l-385 -569h-204z" />
    <glyph glyph-name="Tsecyrillic" unicode="&#x426;" horiz-adv-x="1576" 
d="M1506 -285h-167v285h-1145v1443h180v-1281h772v1281h180v-1281h180v-447z" />
    <glyph glyph-name="Checyrillic" unicode="&#x427;" horiz-adv-x="1420" 
d="M1226 0h-180v680h-16q-139 -144 -368 -144q-125 0 -226 41t-166.5 113.5t-100.5 168.5t-35 207v377h180v-365q0 -167 90 -271.5t257 -104.5q138 0 240 62t145 154v525h180v-1443z" />
    <glyph glyph-name="Shacyrillic" unicode="&#x428;" horiz-adv-x="1972" 
d="M194 0v1443h180v-1281h522v1281h180v-1281h522v1281h180v-1443h-1584z" />
    <glyph glyph-name="Shchacyrillic" unicode="&#x429;" horiz-adv-x="2028" 
d="M1958 -285h-167v285h-1597v1443h180v-1281h522v1281h180v-1281h522v1281h180v-1281h180v-447z" />
    <glyph glyph-name="Hardsigncyrillic" unicode="&#x42a;" horiz-adv-x="1531" 
d="M959 0h-535v1281h-330v162h510v-535h353q204 0 334 -127t130 -328q0 -200 -129.5 -326.5t-332.5 -126.5zM604 162h308q155 0 239.5 76t84.5 215q0 140 -84.5 216.5t-239.5 76.5h-308v-584z" />
    <glyph glyph-name="Yericyrillic" unicode="&#x42b;" horiz-adv-x="1758" 
d="M194 0v1443h180v-535h353q204 0 334 -127t130 -328q0 -200 -129.5 -326.5t-332.5 -126.5h-535zM374 162h308q155 0 239.5 76t84.5 215q0 140 -84.5 216.5t-239.5 76.5h-308v-584zM1564 0h-180v1443h180v-1443z" />
    <glyph glyph-name="Softsigncyrillic" unicode="&#x42c;" horiz-adv-x="1311" 
d="M194 0v1443h180v-535h353q204 0 334 -127t130 -328q0 -200 -129.5 -326.5t-332.5 -126.5h-535zM374 162h308q155 0 239.5 76t84.5 215q0 140 -84.5 216.5t-239.5 76.5h-308v-584z" />
    <glyph glyph-name="Ereversedcyrillic" unicode="&#x42d;" horiz-adv-x="1506" 
d="M728 -34q-237 0 -400.5 118.5t-199.5 317.5h183q35 -125 147 -197.5t270 -72.5q196 0 317 139.5t136 385.5h-643v162h641q-22 231 -141 361.5t-309 130.5q-156 0 -269 -82t-149 -221h-183q32 208 199 338.5t402 130.5q295 0 467 -203t172 -550q0 -350 -172.5 -554
t-467.5 -204z" />
    <glyph glyph-name="IUcyrillic" unicode="&#x42e;" horiz-adv-x="2079" 
d="M1291 -34q-290 0 -462 185.5t-189 505.5h-266v-657h-180v1443h180v-624h268q25 306 197.5 482t451.5 176q302 0 476 -203.5t174 -551.5t-173.5 -552t-476.5 -204zM1291 1311q-216 0 -342 -159t-126 -430t124.5 -430.5t343.5 -159.5q216 0 340.5 160t124.5 430
q0 272 -124.5 430.5t-340.5 158.5z" />
    <glyph glyph-name="IAcyrillic" unicode="&#x42f;" horiz-adv-x="1376" 
d="M1002 717v564h-308q-155 0 -239.5 -73t-84.5 -208q0 -136 84.5 -209.5t239.5 -73.5h308zM722 555l-398 -555h-214l414 577q-154 36 -246.5 149.5t-92.5 273.5q0 196 129.5 319.5t332.5 123.5h535v-1443h-180v555h-280z" />
    <glyph glyph-name="acyrillic" unicode="&#x430;" horiz-adv-x="1150" 
d="M504 132q133 0 220.5 77t87.5 193v99l-290 -19q-122 -8 -179 -51t-57 -125q0 -81 61 -127.5t157 -46.5zM472 -19q-159 0 -261.5 87.5t-102.5 233.5q0 144 102 226t291 93l311 19v98q0 100 -62 153t-182 53q-97 0 -161 -35t-82 -99h-174q17 129 133.5 208t289.5 79
q196 0 303 -95t107 -264v-738h-164v159h-16q-52 -86 -138 -132t-194 -46z" />
    <glyph glyph-name="becyrillic" unicode="&#x431;" horiz-adv-x="1240" 
d="M620 136q155 0 239.5 103t84.5 290q0 178 -84.5 275.5t-239.5 97.5t-239.5 -97.5t-84.5 -275.5q0 -187 84.5 -290t239.5 -103zM265 857h16q52 91 144 145t221 54q215 0 345.5 -141.5t130.5 -385.5q0 -255 -134.5 -401.5t-367.5 -146.5q-243 0 -372.5 162.5t-129.5 488.5
q0 155 15.5 274t53 221.5t98.5 169.5t155.5 106.5t221.5 45.5l108 5q75 4 145.5 18.5t102 26t33.5 13.5v-154q-7 -6 -23 -15.5t-86 -27t-164 -21.5l-110 -5q-106 -5 -179 -34.5t-118 -87.5t-69 -131t-37 -179z" />
    <glyph glyph-name="vecyrillic" unicode="&#x432;" horiz-adv-x="1122" 
d="M606 934h-263v-304h235q203 0 203 154q0 70 -43.5 110t-131.5 40zM593 486h-250v-342h283q99 0 150.5 43.5t51.5 125.5q0 89 -58.5 131t-176.5 42zM171 0v1078h457q151 0 237 -74.5t86 -201.5q0 -80 -50.5 -145.5t-125.5 -81.5v-16q102 -14 163 -82.5t61 -166.5
q0 -142 -98 -226t-271 -84h-459z" />
    <glyph glyph-name="gecyrillic" unicode="&#x433;" horiz-adv-x="951" 
d="M861 934h-518v-934h-172v1078h690v-144z" />
    <glyph glyph-name="decyrillic" unicode="&#x434;" horiz-adv-x="1256" 
d="M857 144v790h-409l-34 -461q-17 -218 -89 -313v-16h532zM196 -285h-162v429h90q56 37 88 126.5t40 206.5l42 601h735v-934h172v-429h-162v285h-843v-285z" />
    <glyph glyph-name="iecyrillic" unicode="&#x435;" horiz-adv-x="1190" 
d="M602 945q-129 0 -212 -87t-93 -230h594q-3 143 -82 230t-207 87zM886 279h172q-39 -140 -158.5 -219t-295.5 -79q-224 0 -355 150.5t-131 406.5q0 255 132 407t354 152q218 0 343 -145t125 -397v-66h-775v-8q7 -160 90.5 -254t220.5 -94q209 0 278 146z" />
    <glyph glyph-name="zhecyrillic" unicode="&#x436;" horiz-adv-x="1639" 
d="M68 0l475 568l-459 510h209l387 -454h54v454h168v-454h54l387 454h206l-456 -506l478 -572h-218l-397 494h-54v-494h-168v494h-54l-397 -494h-215z" />
    <glyph glyph-name="zecyrillic" unicode="&#x437;" horiz-adv-x="1069" 
d="M533 -18q-176 0 -292.5 80t-130.5 214h177q16 -71 80.5 -110t165.5 -39q117 0 182 50t65 132q0 92 -61 135.5t-186 43.5h-163v144h163q206 0 206 161q0 72 -52 115t-154 43q-97 0 -160 -39t-74 -104h-170q17 133 126 211t278 78q179 0 277.5 -79.5t98.5 -211.5
q0 -81 -48.5 -145t-126.5 -82v-16q106 -23 161.5 -87t55.5 -158q0 -150 -115 -243t-303 -93z" />
    <glyph glyph-name="iicyrillic" unicode="&#x438;" horiz-adv-x="1239" 
d="M343 0h-172v1078h172v-804h16l537 804h172v-1078h-172v804h-16z" />
    <glyph glyph-name="iishortcyrillic" unicode="&#x439;" horiz-adv-x="1239" 
d="M343 0h-172v1078h172v-804h16l537 804h172v-1078h-172v804h-16zM262 1556h156q0 -86 51 -148t135 -62q85 0 136.5 62t51.5 148h156q0 -141 -95.5 -234.5t-248.5 -93.5q-152 0 -247 93t-95 235z" />
    <glyph glyph-name="kacyrillic" unicode="&#x43a;" horiz-adv-x="1113" 
d="M343 627h47l427 451h209l-494 -508l513 -570h-223l-432 491h-47v-491h-172v1078h172v-451z" />
    <glyph glyph-name="elcyrillic" unicode="&#x43b;" horiz-adv-x="1184" 
d="M430 473q-7 -93 -20 -164t-36.5 -133t-58 -101.5t-85.5 -61.5t-117 -22q-37 0 -63 11v158q24 -8 54 -8q76 0 113.5 82.5t48.5 242.5l42 601h705v-1078h-172v934h-377z" />
    <glyph glyph-name="emcyrillic" unicode="&#x43c;" horiz-adv-x="1541" 
d="M343 0h-172v1078h209l386 -836h16l387 836h201v-1078h-173v767h-19l-341 -737h-134l-341 737h-19v-767z" />
    <glyph glyph-name="encyrillic" unicode="&#x43d;" horiz-adv-x="1224" 
d="M171 0v1078h172v-446h538v446h172v-1078h-172v488h-538v-488h-172z" />
    <glyph glyph-name="ocyrillic" unicode="&#x43e;" horiz-adv-x="1230" 
d="M615 136q153 0 236 105.5t83 297.5t-83 297.5t-236 105.5t-236 -105.5t-83 -297.5t83 -297.5t236 -105.5zM615 -19q-230 0 -363.5 149.5t-133.5 408.5q0 260 133 409t364 149t364 -149t133 -409q0 -259 -133.5 -408.5t-363.5 -149.5z" />
    <glyph glyph-name="pecyrillic" unicode="&#x43f;" horiz-adv-x="1214" 
d="M871 0v934h-528v-934h-172v1078h872v-1078h-172z" />
    <glyph glyph-name="ercyrillic" unicode="&#x440;" horiz-adv-x="1267" 
d="M696 1097q206 0 329.5 -152t123.5 -406q0 -253 -124 -405.5t-329 -152.5q-115 0 -204 47.5t-133 133.5h-16v-522h-172v1438h164v-180h16q52 93 143.5 146t201.5 53zM655 136q148 0 232 107t84 296t-83.5 296t-231.5 107q-146 0 -232 -108.5t-86 -294.5q0 -185 85.5 -294
t231.5 -109z" />
    <glyph glyph-name="escyrillic" unicode="&#x441;" horiz-adv-x="1166" 
d="M1064 748h-174q-22 85 -94.5 139.5t-183.5 54.5q-145 0 -230.5 -108t-85.5 -291q0 -186 86 -296.5t230 -110.5q109 0 181.5 49t96.5 140h174q-24 -153 -143 -248.5t-308 -95.5q-227 0 -361 152.5t-134 409.5q0 252 134 403t360 151q189 0 308.5 -99t143.5 -250z" />
    <glyph glyph-name="tecyrillic" unicode="&#x442;" horiz-adv-x="1032" 
d="M952 1078v-144h-350v-934h-172v934h-350v144h872z" />
    <glyph glyph-name="ucyrillic" unicode="&#x443;" horiz-adv-x="1132" 
d="M264 -390q-41 0 -77 6v147q26 -5 72 -5q75 0 119.5 40t78.5 137l20 64l-399 1079h186l296 -887h16l295 887h183l-421 -1144q-69 -187 -147 -255.5t-222 -68.5z" />
    <glyph glyph-name="efcyrillic" unicode="&#x444;" horiz-adv-x="1515" 
d="M674 136v806q-176 -4 -278.5 -111.5t-102.5 -291.5q0 -183 102.5 -290.5t278.5 -112.5zM1222 539q0 183 -102.5 290.5t-277.5 112.5v-806q175 4 277.5 111.5t102.5 291.5zM674 -13q-252 5 -404 154.5t-152 397.5q0 249 152 398.5t404 153.5v352h168v-352
q251 -5 403 -154.5t152 -397.5q0 -249 -152 -398.5t-403 -153.5v-347h-168v347z" />
    <glyph glyph-name="hacyrillic" unicode="&#x445;" horiz-adv-x="1096" 
d="M554 407h-16l-256 -407h-195l369 539l-373 539h205l256 -401h16l253 401h195l-366 -532l371 -546h-204z" />
    <glyph glyph-name="tsecyrillic" unicode="&#x446;" horiz-adv-x="1260" 
d="M1205 -285h-162v285h-872v1078h172v-934h518v934h172v-934h172v-429z" />
    <glyph glyph-name="checyrillic" unicode="&#x447;" horiz-adv-x="1164" 
d="M993 0h-172v486h-16q-123 -102 -282 -102q-175 0 -273.5 105.5t-98.5 280.5v308h172v-308q0 -108 56 -170.5t157 -62.5q60 0 112.5 15t86.5 39.5t53.5 43.5t32.5 38v405h172v-1078z" />
    <glyph glyph-name="shacyrillic" unicode="&#x448;" horiz-adv-x="1674" 
d="M171 0v1078h172v-934h408v934h172v-934h408v934h172v-1078h-1332z" />
    <glyph glyph-name="shchacyrillic" unicode="&#x449;" horiz-adv-x="1730" 
d="M1675 -285h-162v285h-1342v1078h172v-934h408v934h172v-934h408v934h172v-934h172v-429z" />
    <glyph glyph-name="hardsigncyrillic" unicode="&#x44a;" horiz-adv-x="1237" 
d="M745 0h-375v934h-290v144h462v-346h203q185 0 295 -99t110 -267t-110 -267t-295 -99zM745 588h-203v-444h203q106 0 169.5 60.5t63.5 161.5t-63.5 161.5t-169.5 60.5z" />
    <glyph glyph-name="yericyrillic" unicode="&#x44b;" horiz-adv-x="1427" 
d="M1084 0v1078h172v-1078h-172zM546 588h-203v-444h203q106 0 169.5 60.5t63.5 161.5t-63.5 161.5t-169.5 60.5zM171 0v1078h172v-346h203q185 0 295 -99t110 -267t-110 -267t-295 -99h-375z" />
    <glyph glyph-name="softsigncyrillic" unicode="&#x44c;" horiz-adv-x="1048" 
d="M546 588h-203v-444h203q106 0 169.5 60.5t63.5 161.5t-63.5 161.5t-169.5 60.5zM171 0v1078h172v-346h203q185 0 295 -99t110 -267t-110 -267t-295 -99h-375z" />
    <glyph glyph-name="ereversedcyrillic" unicode="&#x44d;" horiz-adv-x="1182" 
d="M564 -18q-190 0 -310 95.5t-144 248.5h174q24 -91 97 -140t184 -49q135 0 222 95t98 253h-502v144h499q-15 143 -102 228t-215 85q-113 0 -186 -54.5t-95 -139.5h-174q24 151 144.5 250t310.5 99q227 0 363 -151t136 -403q0 -257 -136.5 -409t-363.5 -152z" />
    <glyph glyph-name="iucyrillic" unicode="&#x44e;" horiz-adv-x="1630" 
d="M1025 -19q-214 0 -343 135t-143 372h-196v-488h-172v1078h172v-446h200q23 219 150.5 342t331.5 123q226 0 356.5 -149t130.5 -409q0 -259 -130.5 -408.5t-356.5 -149.5zM1025 136q148 0 228.5 105.5t80.5 297.5t-80.5 297.5t-228.5 105.5t-228.5 -105.5t-80.5 -297.5
t80.5 -297.5t228.5 -105.5z" />
    <glyph glyph-name="iacyrillic" unicode="&#x44f;" horiz-adv-x="1088" 
d="M542 530h203v404h-203q-107 0 -170 -55.5t-63 -153.5q0 -86 64 -140.5t169 -54.5zM745 0v386h-185l-275 -386h-205l301 418q-114 32 -179 112t-65 191q0 166 109.5 261.5t295.5 95.5h375v-1078h-172z" />
    <glyph glyph-name="iocyrillic" unicode="&#x451;" horiz-adv-x="1190" 
d="M602 945q-129 0 -212 -87t-93 -230h594q-3 143 -82 230t-207 87zM886 279h172q-39 -140 -158.5 -219t-295.5 -79q-224 0 -355 150.5t-131 406.5q0 255 132 407t354 152q218 0 343 -145t125 -397v-66h-775v-8q7 -160 90.5 -254t220.5 -94q209 0 278 146zM402 1228
q-50 0 -85.5 35.5t-35.5 85.5t35.5 85.5t85.5 35.5t85.5 -35.5t35.5 -85.5t-35.5 -85.5t-85.5 -35.5zM806 1228q-50 0 -85.5 35.5t-35.5 85.5t35.5 85.5t85.5 35.5t85.5 -35.5t35.5 -85.5t-35.5 -85.5t-85.5 -35.5z" />
    <glyph glyph-name="djecyrillic" unicode="&#x452;" horiz-adv-x="1236" 
d="M354 908h16q41 91 125.5 140t206.5 49q172 0 272 -105.5t100 -293.5v-754q0 -164 -79.5 -239t-250.5 -75h-30v147h26q90 0 126 38t36 129v712q0 286 -249 286q-142 0 -220.5 -82.5t-78.5 -221.5v-638h-172v1277h-144v124h144v105h172v-105h260v-124h-260v-369z" />
    <glyph glyph-name="gjecyrillic" unicode="&#x453;" horiz-adv-x="951" 
d="M871 934h-518v-934h-172v1078h690v-144zM388 1263l252 338h220l-278 -338h-194z" />
    <glyph glyph-name="ecyrillic" unicode="&#x454;" horiz-adv-x="1166" 
d="M1064 326q-24 -153 -143 -248.5t-308 -95.5q-227 0 -361 152t-134 409q0 252 134 403t360 151q189 0 308.5 -99t143.5 -250h-174q-22 85 -94.5 139.5t-183.5 54.5q-127 0 -211.5 -83.5t-100.5 -226.5h491v-144h-494q8 -161 94 -256t221 -95q109 0 181.5 49t96.5 140h174z
" />
    <glyph glyph-name="dzecyrillic" unicode="&#x455;" horiz-adv-x="1092" 
d="M147 783q0 134 115 224t287 90q169 0 279 -78t127 -211h-170q-18 66 -79.5 104.5t-157.5 38.5q-97 0 -162.5 -45t-65.5 -116q0 -55 45.5 -91.5t141.5 -59.5l166 -40q154 -37 227.5 -107t73.5 -185q0 -143 -123 -234.5t-309 -91.5q-180 0 -295 80t-129 214h177
q22 -70 87 -109.5t166 -39.5q109 0 179 47t70 121q0 110 -171 152l-185 45q-153 37 -223.5 106.5t-70.5 185.5z" />
    <glyph glyph-name="icyrillic" unicode="&#x456;" horiz-adv-x="524" 
d="M176 0v1078h172v-1078h-172zM262 1297q-50 0 -85 35.5t-35 84.5t35 84.5t85 35.5t85 -35.5t35 -84.5t-35 -84.5t-85 -35.5z" />
    <glyph glyph-name="yicyrillic" unicode="&#x457;" horiz-adv-x="536" 
d="M86 1298q-50 0 -85.5 35.5t-35.5 85.5t35.5 85.5t85.5 35.5t85.5 -35.5t35.5 -85.5t-35.5 -85.5t-85.5 -35.5zM450 1298q-50 0 -85.5 35.5t-35.5 85.5t35.5 85.5t85.5 35.5t85.5 -35.5t35.5 -85.5t-35.5 -85.5t-85.5 -35.5zM166 0v1078h172v-1078h-172z" />
    <glyph glyph-name="jecyrillic" unicode="&#x458;" horiz-adv-x="524" 
d="M348 1078v-1131q0 -166 -80 -241.5t-250 -75.5h-30v147h26q90 0 126 38t36 129v1134h172zM262 1297q-50 0 -85 35.5t-35 84.5t35 84.5t85 35.5t85 -35.5t35 -84.5t-35 -84.5t-85 -35.5z" />
    <glyph glyph-name="ljecyrillic" unicode="&#x459;" horiz-adv-x="1728" 
d="M440 473q-7 -93 -20 -164t-36.5 -133t-58 -101.5t-85.5 -61.5t-117 -22q-37 0 -63 11v158q24 -8 54 -8q76 0 113.5 82.5t48.5 242.5l42 601h705v-346h203q185 0 295 -99t110 -267t-110 -267t-295 -99h-375v934h-377zM1226 588h-203v-444h203q106 0 169.5 60.5t63.5 161.5
t-63.5 161.5t-169.5 60.5z" />
    <glyph glyph-name="njecyrillic" unicode="&#x45a;" horiz-adv-x="1738" 
d="M1246 508h-213v-364h213q102 0 162.5 49.5t60.5 132.5t-61 132.5t-162 49.5zM861 0v508h-518v-508h-172v1078h172v-426h518v426h172v-426h213q181 0 288 -88t107 -238t-107 -238t-288 -88h-385z" />
    <glyph glyph-name="tshecyrillic" unicode="&#x45b;" horiz-adv-x="1236" 
d="M354 908h16q41 91 125.5 140t206.5 49q172 0 272 -105.5t100 -293.5v-698h-172v656q0 286 -249 286q-142 0 -220.5 -82.5t-78.5 -221.5v-638h-172v1277h-144v124h144v105h172v-105h260v-124h-260v-369z" />
    <glyph glyph-name="kjecyrillic" unicode="&#x45c;" horiz-adv-x="1113" 
d="M343 627h47l427 451h209l-494 -508l513 -570h-223l-432 491h-47v-491h-172v1078h172v-451zM438 1263l252 338h220l-278 -338h-194z" />
    <glyph glyph-name="ushortcyrillic" unicode="&#x45e;" horiz-adv-x="1132" 
d="M264 -390q-41 0 -77 6v147q26 -5 72 -5q75 0 119.5 40t78.5 137l20 64l-399 1079h186l296 -887h16l295 887h183l-421 -1144q-69 -187 -147 -255.5t-222 -68.5zM232 1556h156q0 -86 51 -148t135 -62q85 0 136.5 62t51.5 148h156q0 -141 -95.5 -234.5t-248.5 -93.5
q-152 0 -247 93t-95 235z" />
    <glyph glyph-name="dzhecyrillic" unicode="&#x45f;" horiz-adv-x="1214" 
d="M1043 0h-355v-285h-162v285h-355v1078h172v-934h528v934h172v-1078z" />
    <glyph glyph-name="Geupturncyrillic" unicode="&#x490;" horiz-adv-x="1160" 
d="M375 1279v-1279h-181v1443h689v285h167v-449h-675z" />
    <glyph glyph-name="geupturncyrillic" unicode="&#x491;" horiz-adv-x="951" 
d="M861 934h-518v-934h-172v1078h528v285h162v-429z" />
    <glyph glyph-name="baht" unicode="&#xe3f;" horiz-adv-x="1328" 
d="M664 665v-506q153 5 232 69.5t79 185.5q0 237 -311 251zM348 159h182v507h-182v-507zM348 1284v-463h182v463h-182zM664 1282v-456q241 29 241 226q0 101 -63 161t-178 69zM838 772v-16q148 -19 235 -113.5t87 -237.5q0 -191 -129.5 -298t-359.5 -107h-7v-137h-134v137
h-362v1443h362v157h134v-157q197 -1 310 -97.5t113 -262.5q0 -112 -72.5 -202t-176.5 -109z" />
    <glyph glyph-name="Aringbelow" unicode="&#x1e00;" horiz-adv-x="1380" 
d="M1122 0l-145 413h-574l-145 -413h-189l532 1443h178l532 -1443h-189zM682 1210l-226 -644h468l-226 644h-16zM690 -573q-96 0 -164 66.5t-68 162.5t68 162.5t164 66.5t164 -66.5t68 -162.5t-68 -162.5t-164 -66.5zM690 -467q52 0 87 35t35 88t-35 88t-87 35t-87 -35
t-35 -88t35 -88t87 -35z" />
    <glyph glyph-name="aringbelow" unicode="&#x1e01;" horiz-adv-x="1130" 
d="M494 132q133 0 220.5 77t87.5 193v99l-290 -19q-122 -8 -179 -51t-57 -125q0 -81 61 -127.5t157 -46.5zM462 -19q-159 0 -261.5 87.5t-102.5 233.5q0 144 102 226t291 93l311 19v98q0 100 -62 153t-182 53q-97 0 -161 -35t-82 -99h-174q17 129 133.5 208t289.5 79
q196 0 303 -95t107 -264v-738h-164v159h-16q-52 -86 -138 -132t-194 -46zM536 -573q-96 0 -164 66.5t-68 162.5t68 162.5t164 66.5t164 -66.5t68 -162.5t-68 -162.5t-164 -66.5zM536 -467q52 0 87 35t35 88t-35 88t-87 35t-87 -35t-35 -88t35 -88t87 -35z" />
    <glyph glyph-name="Bdotaccent" unicode="&#x1e02;" horiz-adv-x="1346" 
d="M747 0h-563v1443h552q198 0 312.5 -97t114.5 -263q0 -112 -72.5 -202t-176.5 -109v-16q148 -19 235 -113.5t87 -237.5q0 -191 -129.5 -298t-359.5 -107zM364 1284v-463h288q329 0 329 231q0 110 -74.5 171t-208.5 61h-334zM364 159h356q163 0 247 65t84 190
q0 252 -348 252h-339v-507zM604 1575q-50 0 -85.5 35.5t-35.5 85.5t35.5 85.5t85.5 35.5t85.5 -35.5t35.5 -85.5t-35.5 -85.5t-85.5 -35.5z" />
    <glyph glyph-name="bdotaccent" unicode="&#x1e03;" horiz-adv-x="1258" 
d="M698 -19q-112 0 -203.5 50.5t-142.5 140.5h-16v-172h-164v1506h172v-598h16q44 87 135.5 138t202.5 51q206 0 329 -152t123 -406q0 -253 -123.5 -405.5t-328.5 -152.5zM658 942q-147 0 -232.5 -108t-85.5 -295t85.5 -295t232.5 -108q148 0 231 107t83 296t-83 296
t-231 107zM258 1638q-50 0 -85.5 35.5t-35.5 85.5t35.5 85.5t85.5 35.5t85.5 -35.5t35.5 -85.5t-35.5 -85.5t-85.5 -35.5z" />
    <glyph glyph-name="Bdotbelow" unicode="&#x1e04;" horiz-adv-x="1346" 
d="M747 0h-563v1443h552q198 0 312.5 -97t114.5 -263q0 -112 -72.5 -202t-176.5 -109v-16q148 -19 235 -113.5t87 -237.5q0 -191 -129.5 -298t-359.5 -107zM364 1284v-463h288q329 0 329 231q0 110 -74.5 171t-208.5 61h-334zM364 159h356q163 0 247 65t84 190
q0 252 -348 252h-339v-507zM605 -402q-50 0 -85.5 35.5t-35.5 85.5t35.5 85.5t85.5 35.5t85.5 -35.5t35.5 -85.5t-35.5 -85.5t-85.5 -35.5z" />
    <glyph glyph-name="bdotbelow" unicode="&#x1e05;" horiz-adv-x="1258" 
d="M698 -19q-112 0 -203.5 50.5t-142.5 140.5h-16v-172h-164v1506h172v-598h16q44 87 135.5 138t202.5 51q206 0 329 -152t123 -406q0 -253 -123.5 -405.5t-328.5 -152.5zM658 942q-147 0 -232.5 -108t-85.5 -295t85.5 -295t232.5 -108q148 0 231 107t83 296t-83 296
t-231 107zM661 -402q-50 0 -85.5 35.5t-35.5 85.5t35.5 85.5t85.5 35.5t85.5 -35.5t35.5 -85.5t-35.5 -85.5t-85.5 -35.5z" />
    <glyph glyph-name="Blinebelow" unicode="&#x1e06;" horiz-adv-x="1346" 
d="M747 0h-563v1443h552q198 0 312.5 -97t114.5 -263q0 -112 -72.5 -202t-176.5 -109v-16q148 -19 235 -113.5t87 -237.5q0 -191 -129.5 -298t-359.5 -107zM364 1284v-463h288q329 0 329 231q0 110 -74.5 171t-208.5 61h-334zM364 159h356q163 0 247 65t84 190
q0 252 -348 252h-339v-507zM942 -348h-674v136h674v-136z" />
    <glyph glyph-name="blinebelow" unicode="&#x1e07;" horiz-adv-x="1258" 
d="M698 -19q-112 0 -203.5 50.5t-142.5 140.5h-16v-172h-164v1506h172v-598h16q44 87 135.5 138t202.5 51q206 0 329 -152t123 -406q0 -253 -123.5 -405.5t-328.5 -152.5zM658 942q-147 0 -232.5 -108t-85.5 -295t85.5 -295t232.5 -108q148 0 231 107t83 296t-83 296
t-231 107zM998 -348h-674v136h674v-136z" />
    <glyph glyph-name="Ccedillaacute" unicode="&#x1e08;" horiz-adv-x="1466" 
d="M1194 1875l-332 -298h-204l310 298h226zM1348 1008h-183q-36 140 -144 221.5t-257 81.5q-208 0 -329.5 -159t-121.5 -431t122 -430.5t330 -158.5q151 0 258.5 72.5t141.5 197.5h183q-33 -182 -170.5 -298t-341.5 -135l-43 -111q102 0 158.5 -43t56.5 -120
q0 -85 -65.5 -137t-178.5 -52q-84 0 -146 18v108q48 -14 122 -14q119 0 119 73q0 35 -35 50t-114 15h-59v84l51 129q-267 22 -420.5 222.5t-153.5 529.5q0 349 171 552.5t465 203.5q228 0 390 -130t194 -339z" />
    <glyph glyph-name="ccedillaacute" unicode="&#x1e09;" horiz-adv-x="1146" 
d="M958 1601l-278 -338h-194l252 338h220zM1054 748h-174q-22 85 -94.5 139.5t-183.5 54.5q-145 0 -230.5 -108t-85.5 -291q0 -186 86 -296.5t230 -110.5q109 0 181.5 49t96.5 140h174q-22 -136 -119.5 -228t-253.5 -111l-49 -128q102 0 158.5 -43t56.5 -120
q0 -85 -65.5 -137t-178.5 -52q-85 0 -146 18v108q48 -14 122 -14q119 0 119 73q0 35 -35 50t-114 15h-59v84l57 144q-203 19 -321 169t-118 390q0 252 134 403t360 151q189 0 308.5 -99t143.5 -250z" />
    <glyph glyph-name="Ddotaccent" unicode="&#x1e0a;" horiz-adv-x="1487" 
d="M184 1443h495q321 0 501 -190.5t180 -530.5q0 -341 -179.5 -531.5t-501.5 -190.5h-495v1443zM364 1281v-1119h303q241 0 375 147t134 411q0 265 -134.5 413t-374.5 148h-303zM594 1575q-50 0 -85.5 35.5t-35.5 85.5t35.5 85.5t85.5 35.5t85.5 -35.5t35.5 -85.5
t-35.5 -85.5t-85.5 -35.5z" />
    <glyph glyph-name="ddotaccent" unicode="&#x1e0b;" horiz-adv-x="1258" 
d="M561 -19q-207 0 -330 152t-123 406q0 253 123.5 405.5t329.5 152.5q113 0 202.5 -50.5t135.5 -138.5h15v598h172v-1506h-164v172h-16q-51 -90 -142 -140.5t-203 -50.5zM601 942q-147 0 -231 -107.5t-84 -295.5q0 -189 83.5 -296t231.5 -107q147 0 232 108t85 295
q0 185 -85.5 294t-231.5 109zM1000 1638q-50 0 -85.5 35.5t-35.5 85.5t35.5 85.5t85.5 35.5t85.5 -35.5t35.5 -85.5t-35.5 -85.5t-85.5 -35.5z" />
    <glyph glyph-name="Ddotbelow" unicode="&#x1e0c;" horiz-adv-x="1487" 
d="M184 1443h495q321 0 501 -190.5t180 -530.5q0 -341 -179.5 -531.5t-501.5 -190.5h-495v1443zM364 1281v-1119h303q241 0 375 147t134 411q0 265 -134.5 413t-374.5 148h-303zM594 -402q-50 0 -85.5 35.5t-35.5 85.5t35.5 85.5t85.5 35.5t85.5 -35.5t35.5 -85.5
t-35.5 -85.5t-85.5 -35.5z" />
    <glyph glyph-name="ddotbelow" unicode="&#x1e0d;" horiz-adv-x="1258" 
d="M561 -19q-207 0 -330 152t-123 406q0 253 123.5 405.5t329.5 152.5q113 0 202.5 -50.5t135.5 -138.5h15v598h172v-1506h-164v172h-16q-51 -90 -142 -140.5t-203 -50.5zM601 942q-147 0 -231 -107.5t-84 -295.5q0 -189 83.5 -296t231.5 -107q147 0 232 108t85 295
q0 185 -85.5 294t-231.5 109zM672 -402q-50 0 -85.5 35.5t-35.5 85.5t35.5 85.5t85.5 35.5t85.5 -35.5t35.5 -85.5t-35.5 -85.5t-85.5 -35.5z" />
    <glyph glyph-name="Dlinebelow" unicode="&#x1e0e;" horiz-adv-x="1487" 
d="M184 1443h495q321 0 501 -190.5t180 -530.5q0 -341 -179.5 -531.5t-501.5 -190.5h-495v1443zM364 1281v-1119h303q241 0 375 147t134 411q0 265 -134.5 413t-374.5 148h-303zM931 -348h-674v136h674v-136z" />
    <glyph glyph-name="dlinebelow" unicode="&#x1e0f;" horiz-adv-x="1258" 
d="M561 -19q-207 0 -330 152t-123 406q0 253 123.5 405.5t329.5 152.5q113 0 202.5 -50.5t135.5 -138.5h15v598h172v-1506h-164v172h-16q-51 -90 -142 -140.5t-203 -50.5zM601 942q-147 0 -231 -107.5t-84 -295.5q0 -189 83.5 -296t231.5 -107q147 0 232 108t85 295
q0 185 -85.5 294t-231.5 109zM1009 -348h-674v136h674v-136z" />
    <glyph glyph-name="Dcommaaccent" unicode="&#x1e10;" horiz-adv-x="1487" 
d="M184 1443h495q321 0 501 -190.5t180 -530.5q0 -341 -179.5 -531.5t-501.5 -190.5h-495v1443zM364 1281v-1119h303q241 0 375 147t134 411q0 265 -134.5 413t-374.5 148h-303zM597 -518h-167l102 377h182z" />
    <glyph glyph-name="dcommaaccent" unicode="&#x1e11;" horiz-adv-x="1258" 
d="M561 -19q-207 0 -330 152t-123 406q0 253 123.5 405.5t329.5 152.5q113 0 202.5 -50.5t135.5 -138.5h15v598h172v-1506h-164v172h-16q-51 -90 -142 -140.5t-203 -50.5zM601 942q-147 0 -231 -107.5t-84 -295.5q0 -189 83.5 -296t231.5 -107q147 0 232 108t85 295
q0 185 -85.5 294t-231.5 109zM675 -518h-167l102 377h182z" />
    <glyph glyph-name="Dcircumflexbelow" unicode="&#x1e12;" horiz-adv-x="1487" 
d="M184 1443h495q321 0 501 -190.5t180 -530.5q0 -341 -179.5 -531.5t-501.5 -190.5h-495v1443zM364 1281v-1119h303q241 0 375 147t134 411q0 265 -134.5 413t-374.5 148h-303zM676 -142l300 -290h-202l-172 173h-16l-172 -173h-202l300 290h164z" />
    <glyph glyph-name="dcircumflexbelow" unicode="&#x1e13;" horiz-adv-x="1258" 
d="M561 -19q-207 0 -330 152t-123 406q0 253 123.5 405.5t329.5 152.5q113 0 202.5 -50.5t135.5 -138.5h15v598h172v-1506h-164v172h-16q-51 -90 -142 -140.5t-203 -50.5zM601 942q-147 0 -231 -107.5t-84 -295.5q0 -189 83.5 -296t231.5 -107q147 0 232 108t85 295
q0 185 -85.5 294t-231.5 109zM754 -142l300 -290h-202l-172 173h-16l-172 -173h-202l300 290h164z" />
    <glyph glyph-name="Emacrongrave" unicode="&#x1e14;" horiz-adv-x="1220" 
d="M1078 162v-162h-894v1443h894v-162h-714v-463h677v-160h-677v-496h714zM968 1620h-674v130h674v-130zM737 1873h-192l-246 222h218z" />
    <glyph glyph-name="emacrongrave" unicode="&#x1e15;" horiz-adv-x="1170" 
d="M592 945q-129 0 -212 -87t-93 -230h594q-3 143 -82 230t-207 87zM876 279h172q-39 -140 -158.5 -219t-295.5 -79q-224 0 -355 150.5t-131 406.5q0 255 132 407t354 152q218 0 343 -145t125 -397v-66h-775v-8q7 -160 90.5 -254t220.5 -94q209 0 278 146zM716 1555h-192
l-226 288h218zM931 1263h-674v136h674v-136z" />
    <glyph glyph-name="Emacronacute" unicode="&#x1e16;" horiz-adv-x="1220" 
d="M1078 162v-162h-894v1443h894v-162h-714v-463h677v-160h-677v-496h714zM968 1619h-674v130h674v-130zM525 1872l220 222h218l-246 -222h-192z" />
    <glyph glyph-name="emacronacute" unicode="&#x1e17;" horiz-adv-x="1170" 
d="M592 945q-129 0 -212 -87t-93 -230h594q-3 143 -82 230t-207 87zM876 279h172q-39 -140 -158.5 -219t-295.5 -79q-224 0 -355 150.5t-131 406.5q0 255 132 407t354 152q218 0 343 -145t125 -397v-66h-775v-8q7 -160 90.5 -254t220.5 -94q209 0 278 146zM472 1555l200 288
h218l-226 -288h-192zM931 1263h-674v136h674v-136z" />
    <glyph glyph-name="Ecircumflexbelow" unicode="&#x1e18;" horiz-adv-x="1220" 
d="M1078 162v-162h-894v1443h894v-162h-714v-463h677v-160h-677v-496h714zM713 -142l300 -290h-202l-172 173h-16l-172 -173h-202l300 290h164z" />
    <glyph glyph-name="ecircumflexbelow" unicode="&#x1e19;" horiz-adv-x="1170" 
d="M592 945q-129 0 -212 -87t-93 -230h594q-3 143 -82 230t-207 87zM876 279h172q-39 -140 -158.5 -219t-295.5 -79q-224 0 -355 150.5t-131 406.5q0 255 132 407t354 152q218 0 343 -145t125 -397v-66h-775v-8q7 -160 90.5 -254t220.5 -94q209 0 278 146zM677 -142
l300 -290h-202l-172 173h-16l-172 -173h-202l300 290h164z" />
    <glyph glyph-name="Etildebelow" unicode="&#x1e1a;" horiz-adv-x="1220" 
d="M1078 162v-162h-894v1443h894v-162h-714v-463h677v-160h-677v-496h714zM781 -423q-45 0 -82.5 17.5t-62.5 42t-47.5 49t-49 42t-54.5 17.5q-45 0 -68 -34.5t-26 -116.5h-136q0 133 60.5 207t165.5 74q48 0 88.5 -17.5t67 -42t49 -49t45.5 -42t46 -17.5q87 0 95 151h135
q0 -128 -61.5 -204.5t-164.5 -76.5z" />
    <glyph glyph-name="etildebelow" unicode="&#x1e1b;" horiz-adv-x="1170" 
d="M592 945q-129 0 -212 -87t-93 -230h594q-3 143 -82 230t-207 87zM876 279h172q-39 -140 -158.5 -219t-295.5 -79q-224 0 -355 150.5t-131 406.5q0 255 132 407t354 152q218 0 343 -145t125 -397v-66h-775v-8q7 -160 90.5 -254t220.5 -94q209 0 278 146zM745 -423
q-45 0 -82.5 17.5t-62.5 42t-47.5 49t-49 42t-54.5 17.5q-45 0 -68 -34.5t-26 -116.5h-136q0 133 60.5 207t165.5 74q48 0 88.5 -17.5t67 -42t49 -49t45.5 -42t46 -17.5q87 0 95 151h135q0 -128 -61.5 -204.5t-164.5 -76.5z" />
    <glyph glyph-name="Ecedillabreve" unicode="&#x1e1c;" horiz-adv-x="1220" 
d="M841 1873h154q0 -135 -98 -216.5t-266 -81.5t-266 81.5t-98 216.5h154q0 -79 56.5 -126t153.5 -47t153.5 47t56.5 126zM1078 1281h-714v-463h677v-160h-677v-496h714v-162h-363l-55 -142q102 0 158.5 -43t56.5 -120q0 -85 -65.5 -137t-178.5 -52q-85 0 -146 18v108
q48 -14 122 -14q119 0 119 73q0 35 -35 50t-114 15h-59v84l63 160h-397v1443h894v-162z" />
    <glyph glyph-name="ecedillabreve" unicode="&#x1e1d;" horiz-adv-x="1170" 
d="M802 1556h154q0 -145 -98 -236.5t-266 -91.5t-266 91.5t-98 236.5h154q0 -89 55.5 -144.5t154.5 -55.5t154.5 55.5t55.5 144.5zM287 628h594q-3 143 -82 230t-207 87q-129 0 -212 -87t-93 -230zM1062 489h-775v-8q7 -160 90.5 -254t220.5 -94q209 0 278 146h172
q-35 -123 -132.5 -200t-242.5 -93l-49 -128q102 0 158.5 -43t56.5 -120q0 -85 -65.5 -137t-178.5 -52q-85 0 -146 18v108q48 -14 122 -14q119 0 119 73q0 35 -35 50t-114 15h-59v84l57 144q-200 19 -315.5 167t-115.5 387q0 255 132 407t354 152q218 0 343 -145t125 -397
v-66z" />
    <glyph glyph-name="Fdotaccent" unicode="&#x1e1e;" horiz-adv-x="1172" 
d="M364 0h-180v1443h876v-162h-696v-496h639v-160h-639v-625zM622 1575q-50 0 -85.5 35.5t-35.5 85.5t35.5 85.5t85.5 35.5t85.5 -35.5t35.5 -85.5t-35.5 -85.5t-85.5 -35.5z" />
    <glyph glyph-name="fdotaccent" unicode="&#x1e1f;" horiz-adv-x="726" 
d="M234 0v934h-179v144h179v105q0 162 81.5 237.5t241.5 75.5q46 0 106 -10v-144q-41 9 -96 9q-161 0 -161 -173v-100h247v-144h-247v-934h-172zM429 1625q-50 0 -85.5 35.5t-35.5 85.5t35.5 85.5t85.5 35.5t85.5 -35.5t35.5 -85.5t-35.5 -85.5t-85.5 -35.5z" />
    <glyph glyph-name="Gmacron" unicode="&#x1e20;" horiz-adv-x="1529" 
d="M1395 558q0 -267 -168 -429.5t-445 -162.5q-299 0 -476.5 205t-177.5 551q0 342 179 548.5t475 206.5q240 0 402.5 -125t201.5 -339h-183q-47 146 -154 222t-267 76q-214 0 -341.5 -160t-127.5 -429q0 -273 126.5 -431.5t343.5 -158.5q194 0 313.5 113t119.5 296v35h-406
v158h585v-176zM1119 1620h-674v136h674v-136z" />
    <glyph glyph-name="gmacron" unicode="&#x1e21;" horiz-adv-x="1248" 
d="M918 555q0 177 -86 282t-234 105t-230 -104t-82 -283t82 -283t230 -104q149 0 234.5 105t85.5 282zM606 -414q-193 0 -312.5 80t-139.5 215h182q14 -67 85 -106t185 -39q145 0 226.5 67.5t81.5 186.5v212h-16q-51 -89 -139 -137.5t-199 -48.5q-208 0 -330 147.5
t-122 391.5t123 393t329 149q113 0 206 -51.5t140 -138.5h16v171h164v-1097q0 -181 -130 -288t-350 -107zM931 1286h-674v136h674v-136z" />
    <glyph glyph-name="Hdotaccent" unicode="&#x1e22;" horiz-adv-x="1520" 
d="M1336 0h-180v657h-792v-657h-180v1443h180v-624h792v624h180v-1443zM760 1575q-50 0 -85.5 35.5t-35.5 85.5t35.5 85.5t85.5 35.5t85.5 -35.5t35.5 -85.5t-35.5 -85.5t-85.5 -35.5z" />
    <glyph glyph-name="hdotaccent" unicode="&#x1e23;" horiz-adv-x="1216" 
d="M172 0v1506h172v-598h16q41 91 125.5 140t206.5 49q172 0 272 -105.5t100 -293.5v-698h-172v656q0 286 -249 286q-142 0 -220.5 -82.5t-78.5 -221.5v-638h-172zM258 1638q-50 0 -85.5 35.5t-35.5 85.5t35.5 85.5t85.5 35.5t85.5 -35.5t35.5 -85.5t-35.5 -85.5
t-85.5 -35.5z" />
    <glyph glyph-name="Hdotbelow" unicode="&#x1e24;" horiz-adv-x="1520" 
d="M1336 0h-180v657h-792v-657h-180v1443h180v-624h792v624h180v-1443zM760 -402q-50 0 -85.5 35.5t-35.5 85.5t35.5 85.5t85.5 35.5t85.5 -35.5t35.5 -85.5t-35.5 -85.5t-85.5 -35.5z" />
    <glyph glyph-name="hdotbelow" unicode="&#x1e25;" horiz-adv-x="1216" 
d="M172 0v1506h172v-598h16q41 91 125.5 140t206.5 49q172 0 272 -105.5t100 -293.5v-698h-172v656q0 286 -249 286q-142 0 -220.5 -82.5t-78.5 -221.5v-638h-172zM618 -402q-50 0 -85.5 35.5t-35.5 85.5t35.5 85.5t85.5 35.5t85.5 -35.5t35.5 -85.5t-35.5 -85.5
t-85.5 -35.5z" />
    <glyph glyph-name="Hdieresis" unicode="&#x1e26;" horiz-adv-x="1520" 
d="M1336 0h-180v657h-792v-657h-180v1443h180v-624h792v624h180v-1443zM558 1575q-50 0 -85.5 35.5t-35.5 85.5t35.5 85.5t85.5 35.5t85.5 -35.5t35.5 -85.5t-35.5 -85.5t-85.5 -35.5zM962 1575q-50 0 -85.5 35.5t-35.5 85.5t35.5 85.5t85.5 35.5t85.5 -35.5t35.5 -85.5
t-35.5 -85.5t-85.5 -35.5z" />
    <glyph glyph-name="hdieresis" unicode="&#x1e27;" horiz-adv-x="1216" 
d="M172 0v1506h172v-598h16q41 91 125.5 140t206.5 49q172 0 272 -105.5t100 -293.5v-698h-172v656q0 286 -249 286q-142 0 -220.5 -82.5t-78.5 -221.5v-638h-172zM56 1638q-50 0 -85.5 35.5t-35.5 85.5t35.5 85.5t85.5 35.5t85.5 -35.5t35.5 -85.5t-35.5 -85.5t-85.5 -35.5
zM460 1638q-50 0 -85.5 35.5t-35.5 85.5t35.5 85.5t85.5 35.5t85.5 -35.5t35.5 -85.5t-35.5 -85.5t-85.5 -35.5z" />
    <glyph glyph-name="Hcedilla" unicode="&#x1e28;" horiz-adv-x="1520" 
d="M184 1443h180v-624h792v624h180v-1443h-180v657h-792v-657l-55 -142q102 0 159 -43t57 -120q0 -85 -65.5 -137t-178.5 -52q-85 0 -146 18v108q48 -14 122 -14q119 0 119 73q0 35 -35 50t-114 15h-59v84l63 160h-47v1443z" />
    <glyph glyph-name="hcedilla" unicode="&#x1e29;" horiz-adv-x="1216" 
d="M114 -476v108q48 -14 122 -14q119 0 119 73q0 35 -35 50t-114 15h-59v84l63 160h-38v1506h172v-598h16q41 91 125.5 140t206.5 49q172 0 272 -105.5t100 -293.5v-698h-172v656q0 286 -249 286q-142 0 -220.5 -82.5t-78.5 -221.5v-638l-55 -142q102 0 158.5 -43t56.5 -120
q0 -85 -65.5 -137t-178.5 -52q-84 0 -146 18z" />
    <glyph glyph-name="Hbrevebelow" unicode="&#x1e2a;" horiz-adv-x="1520" 
d="M1336 0h-180v657h-792v-657h-180v1443h180v-624h792v624h180v-1443zM396 -126h154q0 -79 56.5 -126t153.5 -47t153.5 47t56.5 126h154q0 -135 -98 -216.5t-266 -81.5t-266 81.5t-98 216.5z" />
    <glyph glyph-name="hbrevebelow" unicode="&#x1e2b;" horiz-adv-x="1216" 
d="M172 0v1506h172v-598h16q41 91 125.5 140t206.5 49q172 0 272 -105.5t100 -293.5v-698h-172v656q0 286 -249 286q-142 0 -220.5 -82.5t-78.5 -221.5v-638h-172zM254 -126h154q0 -79 56.5 -126t153.5 -47t153.5 47t56.5 126h154q0 -135 -98 -216.5t-266 -81.5t-266 81.5
t-98 216.5z" />
    <glyph glyph-name="Itildebelow" unicode="&#x1e2c;" horiz-adv-x="548" 
d="M364 0h-180v1443h180v-1443zM424 -423q-45 0 -82.5 17.5t-62.5 42t-47.5 49t-49 42t-54.5 17.5q-45 0 -68 -34.5t-26 -116.5h-136q0 133 60.5 207t165.5 74q48 0 88.5 -17.5t67 -42t49 -49t45.5 -42t46 -17.5q87 0 95 151h135q0 -128 -61.5 -204.5t-164.5 -76.5z" />
    <glyph glyph-name="itildebelow" unicode="&#x1e2d;" horiz-adv-x="504" 
d="M166 0v1078h172v-1078h-172zM252 1297q-50 0 -85 35.5t-35 84.5t35 84.5t85 35.5t85 -35.5t35 -84.5t-35 -84.5t-85 -35.5zM402 -423q-45 0 -82.5 17.5t-62.5 42t-47.5 49t-49 42t-54.5 17.5q-45 0 -68 -34.5t-26 -116.5h-136q0 133 60.5 207t165.5 74q48 0 88.5 -17.5
t67 -42t49 -49t45.5 -42t46 -17.5q87 0 95 151h135q0 -128 -61.5 -204.5t-164.5 -76.5z" />
    <glyph glyph-name="Idieresisacute" unicode="&#x1e2e;" horiz-adv-x="548" 
d="M364 0h-180v1443h180v-1443zM186 1873l230 222h227l-281 -222h-176zM72 1575q-50 0 -85.5 35.5t-35.5 85.5t35.5 85.5t85.5 35.5t85.5 -35.5t35.5 -85.5t-35.5 -85.5t-85.5 -35.5zM476 1575q-50 0 -85.5 35.5t-35.5 85.5t35.5 85.5t85.5 35.5t85.5 -35.5t35.5 -85.5
t-35.5 -85.5t-85.5 -35.5z" />
    </font>
</defs>
</svg>
